File-Portal

Nel не спеша скачать торрент

Рейтинг: 4.3/5.0 (254 проголосовавших)

Категория: Торрент-файлы

Описание

Nel (Marselle) — Не спеша (2013) cкачать бесплатно — скачать альбом Nel (Marselle)

Nel (Marselle) — Не спеша (2013)

Вы можете скачать альбом Nel (Marselle) — Не спеша (2013) бесплатно и без регистрации. Скачать альбом можно с файлообменника. Для вашего удобства мы разместили сразу несколько ссылок на самые популярные файлообменники. На этой странице вы можете оценить альбом, либо выразить свою точу зрения по поводу альбома Nel (Marselle) — Не спеша (2013). Не забывайте, что вы обязаны удалить альбом в течение 24 часов после прослушивания, т.к. все материалы, имеющиеся на сайте, предоставлены лишь для ознакомления.


Загрузка.

Перейти в раздел Зарубежный рэп

Новый зарубежный рэп

добавлен 06.02.2017 просмотров 2292

добавлен 06.02.2017 просмотров 1212

добавлен 06.02.2017 просмотров 1581

добавлен 03.02.2017 просмотров 1543

добавлен 03.02.2017 просмотров 1093

добавлен 03.02.2017 просмотров 1156

добавлен 03.02.2017 просмотров 885

добавлен 03.02.2017 просмотров 730

добавлен 02.02.2017 просмотров 880

добавлен 02.02.2017 просмотров 713


Загрузка.

Sum summus mus или рецензия на альбом Guf - Ещё.

Заявки на клипы.

Обзор мобильного телефона от 15-183-2.

Задавайте вопросы администрации сайта, и мы с радостью ответим на них.

Чё такое уныние везде?
Пиздец, включаешь, переключаешь.
И хочется. от LivingStar

Новое на форуме

сообщений 9729 последнее от dmitry_rd

сообщений 1487 последнее от ЧупакаБРО

сообщений 4681 последнее от slam_rap-4ik

сообщений 3 последнее от meron

сообщений 952 последнее от meron

Онлайн всего: 31

Nel не спеша скачать торрент:

  • скачать
  • скачать
  • Другие статьи

    Скачать альбом Nel (ex

    Nel (ex. Marselle) - Не Спеша (2013) Lossless
    • Создание сайтов под ключ!

      Раздел: Новости
      Коммент. 2 | Просмотров: 14636

    ">Создание сайтов под Каста - Четырёхглавый орёт (2017)

    Раздел: Альбомы
    Коммент. 0 | Просмотров: 1363

    ">Каста - Четырёхглавый Скриптонит - Праздник на улице 36 (2017)

    Раздел: Альбомы
    Коммент. 0 | Просмотров: 3291

    ">Скриптонит - Праздник The Chemodan - The End (2017)

    Раздел: Альбомы
    Коммент. 0 | Просмотров: 2007

    ">The Chemodan - The End GUSLI - GuSli (2017)

    Раздел: Альбомы
    Коммент. 0 | Просмотров: 3987

    ">GUSLI - GuSli (2017) Miyagi & Эндшпиль feat. Amigo - Умшакалака (2017)

    Раздел: Альбомы
    Коммент. 0 | Просмотров: 3736

    ">Miyagi & Эндшпиль feat. Опрос: Нужен ли на сайте раздел зарубежного рэпа.

    Раздел: Новости
    Коммент. 17 | Просмотров: 12854

    ">Опрос: Нужен ли на Карандаш - Американщина II (2012)

    Раздел: Альбомы
    Коммент. 12 | Просмотров: 12801

    ">Карандаш - Американщина Oxxxymiron - Песенка Гремлина (2012)

    Раздел: Треки
    Коммент. 9 | Просмотров: 8887

    ">Oxxxymiron - Песенка Рем Дигга - Крокодил говорит. (2012)

    Раздел: Альбомы
    Коммент. 10 | Просмотров: 6954

    Скачать (Rap, Hip-Hop) Nel - Не Спеша - 2013, ALAC, lossless

    Nel - Не Спеша (EP) - Жанр. Rap, Hip-Hop
    Носитель. CD
    Страна-производитель диска. Россия
    Год издания. 2013
    Тип издания. оригинал
    Издатель (лейбл). Anik Records, BTWRX Records
    Номер по каталогу. RFD80M-80592
    Страна. Россия (г. Москва)
    Кодек. ALAC
    Битрейт. lossless
    Продолжительность. 00:16:46
    Вшитые тексты. да
    Программа-риповщик. EAC (диск)
    Источник (релизер). Собственный диск
    Наличие сканов в содержимом раздачи. да - Треклист. - 01. Интро
    Музыка: Nel
    02. По Барабану
    Музыка: Nel
    03. 10 Лет Назад
    Музыка: Nel
    04. XXIV
    Музыка: Nel
    05. Рэй Бэны (Feat. Миша Крупин)
    Музыка: Nel
    06. Но Пока Я Здесь
    Музыка: Nel

    Лог создания рипа

    Лог проверки качества

    Скриншот спектра частот

    Доп. информация01. Интро
    Сведение: Nel
    Мастеринг: Александр Перфильев
    02. По Барабану
    Слова: Nel
    Сведение: Nel
    Мастеринг: Александр Перфильев
    Бэк-вокал: Алида
    03. 10 Лет Назад
    Слова: Nel
    Сведение: Nel
    Мастеринг: Александр Перфильев
    Гитара: Ваня Nanik
    Бэк-вокал: ms.Sounday
    04. XXIV
    Слова: Nel
    Сведение: Nel
    Мастеринг: Александр Перфильев
    Бэк-вокал: Kristina Si
    05. Рэй Бэны (Feat. Миша Крупин)
    Слова: Nel, Миша Крупин
    Мастеринг: Александр Перфильев
    Бэк-вокал: ms.Sounday
    06. Но Пока Я Здесь
    Слова: Nel
    Мастеринг: Александр Перфильев
    Бэк-вокал: ms.Sounday - Мастеринг: Студия DEF Records
    Фотограф: Виталий Кривцов

    Об исполнителе (группе)

    Игорь Пустельник, более известный как Nel — российский битмейкер и рэп-исполнитель. В прошлом солист группы Marselle c L'One и участник объединения Phlatline. Родной город Якутск. Сейчас проживает в Москве.
    Игоря обычно причисляют к рядам intelligent хип-хопа. Трек «Москва» на протяжении 32-х недель занимал первое место в хит-параде NEXT FM/
    Добившись на родине неплохих результатов, Nel вместе со своим соратником L’One переехал в Москву, где образовал группу «Marselle», получившую известность благодаря треку «Москва» с дебютного альбома. Объездив множество российских городов с гастролями и полюбившись публике далеко за пределами столицы, «Marselle» заняла своё место в рейтинге востребованных андеграундных групп страны.
    В 2008 году вышел первый микстейп группы под названием «Mars FM», а также было запущено реалити-шоу о создании пластинки в интернете. В том же 2008 году выходит полноценный альбом «Mars», в записи которого приняли участие такие артисты, как Баста, ST, Теона Дольникова и Кнара. Его назвали лучшим приложением к новым Air Force 1. А песня «Москва» в итоге стала саундтреком к фильму «Фантом» Тимура Бекмамбетова.
    - В 2009 году Nel становится победителем шоу «Битва за респект» на телеканале Муз-ТВ.
    - В 2009 году Nel принимает участие в продюсировании альбома Guf — «Дома»
    - В 2010 году Nel спродюсировал альбом своего друга и соратника ST — «На100ящий»
    После распада группы Marselle, Nel работает над материалом сольно и является саунд-продюсером многих рэп-исполнителей страны.

    Об альбоме (сборнике)

    Nel выпускает первый сольный релиз, в более перспективной, по его мнению, форме EP. Определенно стоит ждать от него и следующего — альбом пока не планируется.

    Nel - Не спеша (2013)


    Российский рэп-исполнитель, битмейкер, саунд-продюсер и аранжировщик. Экс-участник московской группы Marselle.
    Победитель второго сезона телевизионного хип-хоп шоу «Битва за Респект» на телеканале МУЗ-ТВ.
    Нэл - С малых лет интересуется музыкой.
    До дыр затер клавиши первого синтезатора, и девушек которым нравилось то, что он делает. Заинтересовался хип-хопом после кассет «Public Enemy». Детство помнит смутно: холод, Якутск, снег, и микрофон перед шкафом. В настоящее время учится в Гуманитарном институте Телевидения и Радиовещания, на звукорежиссера.



    01. Интро
    02. По Барабану
    03. 10 Лет Назад
    04. XXIV
    05. Рэй Бэны (feat. Миша Крупин)
    06. Но Пока Я Здесь


    Раздают: 0
    Качают: 0
    Скачавших: 20
    Из них пользователи: 2

    Список скачавших
    Скорость U/D:
    0байт/0байт

    Rap, Hip-Hop) Nel - Дискография - 2013-2014, ALAC (tracks

    Nel - Дискография - - - Жанр. Rap, Hip-Hop | Носитель. CD | Страна-производитель диска. Россия | Страна. Россия (г. Москва) | Аудиокодек. ALAC | Битрейт аудио. lossless | Вшитые тексты. вшиты | Программа-риповщик. EAC (диск)
    Общая продолжительность. 00:42:53 | Источник (релизер). Собственные диски | Наличие сканов в содержимом раздачи. да - (2013) Не Спеша (EP) Издатель (лейбл). Anik Records, BTWRX Records
    Номер по каталогу. RFD80M-80592
    Продолжительность. 00:16:46 - - Треклист:
    01. Интро
    Музыка: Nel
    02. По Барабану
    Музыка: Nel
    03. 10 Лет Назад
    Музыка: Nel
    04. XXIV
    Музыка: Nel
    05. Рэй Бэны (Feat. Миша Крупин)
    Музыка: Nel
    06. Но Пока Я Здесь
    Музыка: Nel

    Лог создания рипа

    Exact Audio Copy V1.0 beta 3 from 29. August 2011
    Отчёт EAC об извлечении, выполненном 24. февраля 2014, 21:07
    Nel / Не Спеша (EP)
    Дисковод: TSSTcorpCDDVDW SH-224BB Adapter: 0 ID: 0
    Режим чтения. ДостоверностьИспользование точного потока. ДаОтключение кэша аудио. ДаИспользование указателей C2. Нет
    Коррекция смещения при чтении. 6Способность читать области Lead-in и Lead-out. НетЗаполнение пропущенных сэмплов тишиной. ДаУдаление блоков с тишиной в начале и конце. НетПри вычислениях CRC использовались нулевые сэмплы. ДаИнтерфейс. Встроенный Win32-интерфейс для Win NT/2000Обработка зазоров. Добавлено к предыдущему треку
    Выходной формат. Пользовательский кодировщикВыбранный битрейт. 896 kBit/sКачество. ВысокийДобавление ID3-тега. НетУтилита сжатия. C:\Program Files\Foobar2000 zPack\encoders\refalac64.exeДополнительные параметры. -s --ignorelength --artist "%artist%" --title "%title%" --album "%albumtitle%" --date "%year%" --track "%tracknr%" --genre "%genre%" -o %dest% %source%
    TOC извлечённого CD
    Трек | Старт | Длительность | Начальный сектор | Конечный сектор---------------------------------------------------------------------1 | 0:00.00 | 1:16.40 | 0 | 57392 | 1:16.40 | 3:24.66 | 5740 | 211053 | 4:41.31 | 3:12.14 | 21106 | 355194 | 7:53.45 | 2:58.73 | 35520 | 489425 | 10:52.43 | 2:43.35 | 48943 | 612026 | 13:36.03 | 3:10.66 | 61203 | 75518
    Трек 1
    Имя файла H:\Музон (Loseless)\Мои Рипы\(2013) Nel - Не Спеша (EP) (ALAC)\01 Интро.wav
    Длина предзазора 0:00:02.00
    Пиковый уровень 96.6 %Скорость извлечения 3.6 XКачество трека 100.0 %CRC теста B34CF4ABCRC копии B34CF4ABТрек не обнаружен в базе AccurateRipКопирование. OK
    Трек 2
    Имя файла H:\Музон (Loseless)\Мои Рипы\(2013) Nel - Не Спеша (EP) (ALAC)\02 По Барабану.wav
    Пиковый уровень 97.7 %Скорость извлечения 4.8 XКачество трека 100.0 %CRC теста 7BE923F7CRC копии 7BE923F7Трек не обнаружен в базе AccurateRipКопирование. OK
    Трек 3
    Имя файла H:\Музон (Loseless)\Мои Рипы\(2013) Nel - Не Спеша (EP) (ALAC)\03 10 Лет Назад.wav
    Пиковый уровень 96.6 %Скорость извлечения 5.1 XКачество трека 100.0 %CRC теста C922E06DCRC копии C922E06DТрек не обнаружен в базе AccurateRipКопирование. OK
    Трек 4
    Имя файла H:\Музон (Loseless)\Мои Рипы\(2013) Nel - Не Спеша (EP) (ALAC)\04 XXIV.wav
    Пиковый уровень 96.6 %Скорость извлечения 4.6 XКачество трека 99.9 %CRC теста 86C2ECD0CRC копии 86C2ECD0Трек не обнаружен в базе AccurateRipКопирование. OK
    Трек 5
    Имя файла H:\Музон (Loseless)\Мои Рипы\(2013) Nel - Не Спеша (EP) (ALAC)\05 Рэй Бэны (Feat. Миша Крупин).wav
    Пиковый уровень 96.6 %Скорость извлечения 5.5 XКачество трека 100.0 %CRC теста E9CD8CA3CRC копии E9CD8CA3Трек не обнаружен в базе AccurateRipКопирование. OK
    Трек 6
    Имя файла H:\Музон (Loseless)\Мои Рипы\(2013) Nel - Не Спеша (EP) (ALAC)\06 Но Пока Я Здесь.wav
    Пиковый уровень 96.6 %Скорость извлечения 5.1 XКачество трека 99.9 %CRC теста 758CD97ECRC копии 758CD97EТрек не обнаружен в базе AccurateRipКопирование. OK
    Ни одного трека нет в базе AccurateRip
    Ошибок не произошло
    Конец отчёта
    ==== Контрольная сумма отчёта 060D677D155E44EB144C0F02FD1421CFD1AD297C4C531367160E5CEF5087958D ====

    Содержание индексной карты (.CUE)

    REM GENRE RapREM DATE 2013REM DISCID 4E03EE06REM COMMENT "ExactAudioCopy v1.1"PERFORMER "Nel"TITLE "Не Спеша"FILE "01. Интро.wav" WAVETRACK 01 AUDIOTITLE "Интро"PERFORMER "Nel"INDEX 01 00:00:00FILE "02. По Барабану.wav" WAVETRACK 02 AUDIOTITLE "По Барабану"PERFORMER "Nel"INDEX 01 00:00:00FILE "03. 10 Лет Назад.wav" WAVETRACK 03 AUDIOTITLE "10 Лет Назад"PERFORMER "Nel"INDEX 01 00:00:00FILE "04. XXIV.wav" WAVETRACK 04 AUDIOTITLE "XXIV"PERFORMER "Nel"INDEX 01 00:00:00FILE "05. Рэй Бэны (Feat. Миша Крупин).wav" WAVETRACK 05 AUDIOTITLE "Рэй Бэны (Feat. Миша Крупин)"PERFORMER "Nel"INDEX 01 00:00:00FILE "06. Но Пока Я Здесь.wav" WAVETRACK 06 AUDIOTITLE "Но Пока Я Здесь"PERFORMER "Nel"INDEX 01 00:00:00

    Лог проверки качества

    Начато: пятница, 28. 02. 2014. - 0:55.30Найдено файлов: 6
    1 -===- H:\Музон (Loseless)\Мои Рипы\(2013) Nel - Не Спеша (EP) (FLAC)\01 Интро.flacИзвлечение успешно выполненоЗаключение: этот трек - CDDA с вероятностью 100%Временный файл удалён.
    2 -===- H:\Музон (Loseless)\Мои Рипы\(2013) Nel - Не Спеша (EP) (FLAC)\02 По Барабану.flacИзвлечение успешно выполненоЗаключение: этот трек - CDDA с вероятностью 100%Временный файл удалён.
    3 -===- H:\Музон (Loseless)\Мои Рипы\(2013) Nel - Не Спеша (EP) (FLAC)\03 10 Лет Назад.flacИзвлечение успешно выполненоЗаключение: этот трек - CDDA с вероятностью 100%Временный файл удалён.
    4 -===- H:\Музон (Loseless)\Мои Рипы\(2013) Nel - Не Спеша (EP) (FLAC)\04 XXIV.flacИзвлечение успешно выполненоЗаключение: этот трек - CDDA с вероятностью 100%Временный файл удалён.
    5 -===- H:\Музон (Loseless)\Мои Рипы\(2013) Nel - Не Спеша (EP) (FLAC)\05 Рэй Бэны (Feat. Миша Крупин).flacИзвлечение успешно выполненоЗаключение: этот трек - CDDA с вероятностью 100%Временный файл удалён.
    6 -===- H:\Музон (Loseless)\Мои Рипы\(2013) Nel - Не Спеша (EP) (FLAC)\06 Но Пока Я Здесь.flacИзвлечение успешно выполненоЗаключение: этот трек - CDDA с вероятностью 100%Временный файл удалён.
    Завершено: пятница, 28. 02. 2014. - 0:56.30 (Время операции: 0:00.59)

    Скриншот спектра частот

    Доп. информация01. Интро
    Сведение: Nel
    Мастеринг: Александр Перфильев
    02. По Барабану
    Слова: Nel
    Сведение: Nel
    Мастеринг: Александр Перфильев
    Бэк-вокал: Алида
    03. 10 Лет Назад
    Слова: Nel
    Сведение: Nel
    Мастеринг: Александр Перфильев
    Гитара: Ваня Nanik
    Бэк-вокал: ms.Sounday
    04. XXIV
    Слова: Nel
    Сведение: Nel
    Мастеринг: Александр Перфильев
    Бэк-вокал: Kristina Si
    05. Рэй Бэны (Feat. Миша Крупин)
    Слова: Nel, Миша Крупин
    Мастеринг: Александр Перфильев
    Бэк-вокал: ms.Sounday
    06. Но Пока Я Здесь
    Слова: Nel
    Мастеринг: Александр Перфильев
    Бэк-вокал: ms.Sounday - Мастеринг: Студия DEF Records
    Фотограф: Виталий Кривцов

    Об альбоме (сборнике)

    Nel выпускает первый сольный релиз, в более перспективной, по его мнению, форме EP. Определенно стоит ждать от него и следующего — альбом пока не планируется.

    (2014) XO (EP) Издатель (лейбл). ООО "Студия Монолит"
    Номер по каталогу. MONOLIT 341860
    Продолжительность. 00:26:06 - - Треклист:
    01. Мне Это Нравится (Feat. Иракли)
    Музыка: Nel
    02. Остаюсь Собой
    Музыка: Nel
    03. Rock'n'Roll (Feat. ST)
    Музыка: Nel
    04. Джин И Тоник
    Музыка: Nel
    05. All Good
    Музыка: Nel
    06. Такая Жизнь (Feat. Александр Бабенко)
    Музыка: Nel
    07. Через Тернии К Звёздам (Feat. Баста)
    Музыка: Nel

    Лог создания рипа

    Exact Audio Copy V1.0 beta 3 from 29. August 2011
    Отчёт EAC об извлечении, выполненном 28. октября 2014, 18:53
    Nel / XO
    Дисковод: TSSTcorpCDDVDW SH-224BB Adapter: 0 ID: 0
    Режим чтения. ДостоверностьИспользование точного потока. ДаОтключение кэша аудио. ДаИспользование указателей C2. Нет
    Коррекция смещения при чтении. 6Способность читать области Lead-in и Lead-out. НетЗаполнение пропущенных сэмплов тишиной. ДаУдаление блоков с тишиной в начале и конце. НетПри вычислениях CRC использовались нулевые сэмплы. ДаИнтерфейс. Встроенный Win32-интерфейс для Win NT/2000Обработка зазоров. Добавлено к предыдущему треку
    Выходной формат. Пользовательский кодировщикВыбранный битрейт. 896 kBit/sКачество. ВысокийДобавление ID3-тега. НетУтилита сжатия. C:\Program Files\Foobar2000 zPack\encoders\refalac64.exeДополнительные параметры. -s --ignorelength --artist "%artist%" --title "%title%" --album "%albumtitle%" --date "%year%" --track "%tracknr%" --genre "%genre%" -o %dest% %source%
    TOC извлечённого CD
    Трек | Старт | Длительность | Начальный сектор | Конечный сектор---------------------------------------------------------------------1 | 0:00.00 | 4:09.56 | 0 | 187302 | 4:09.56 | 3:18.74 | 18731 | 336543 | 7:28.55 | 3:34.18 | 33655 | 497224 | 11:02.73 | 2:51.02 | 49723 | 625495 | 13:54.00 | 3:15.23 | 62550 | 771976 | 17:09.23 | 4:02.02 | 77198 | 953497 | 21:11.25 | 4:54.74 | 95350 | 117473
    Трек 1
    Имя файла H:\Музон (Loseless)\Мои Рипы\Nel - Дискография (ALAC)\(2014) XO (EP)\01 Мне Это Нравится (Feat. Иракли).wav
    Длина предзазора 0:00:02.00
    Пиковый уровень 96.6 %Скорость извлечения 1.8 XКачество трека 100.0 %CRC теста 5B73D868CRC копии 5B73D868Трек не обнаружен в базе AccurateRipКопирование. OK
    Трек 2
    Имя файла H:\Музон (Loseless)\Мои Рипы\Nel - Дискография (ALAC)\(2014) XO (EP)\02 Остаюсь Собой.wav
    Пиковый уровень 96.6 %Скорость извлечения 2.0 XКачество трека 100.0 %CRC теста 1494727CCRC копии 1494727CТрек не обнаружен в базе AccurateRipКопирование. OK
    Трек 3
    Имя файла H:\Музон (Loseless)\Мои Рипы\Nel - Дискография (ALAC)\(2014) XO (EP)\03 Rock'n'Roll (Feat. ST).wav
    Пиковый уровень 96.6 %Скорость извлечения 2.1 XКачество трека 100.0 %CRC теста AA6EFB23CRC копии AA6EFB23Трек не обнаружен в базе AccurateRipКопирование. OK
    Трек 4
    Имя файла H:\Музон (Loseless)\Мои Рипы\Nel - Дискография (ALAC)\(2014) XO (EP)\04 Джин И Тоник.wav
    Пиковый уровень 96.6 %Скорость извлечения 2.2 XКачество трека 100.0 %CRC теста 01CAC5BCCRC копии 01CAC5BCТрек не обнаружен в базе AccurateRipКопирование. OK
    Трек 5
    Имя файла H:\Музон (Loseless)\Мои Рипы\Nel - Дискография (ALAC)\(2014) XO (EP)\05 All Good.wav
    Пиковый уровень 96.6 %Скорость извлечения 2.4 XКачество трека 100.0 %CRC теста 27F26D6BCRC копии 27F26D6BТрек не обнаружен в базе AccurateRipКопирование. OK
    Трек 6
    Имя файла H:\Музон (Loseless)\Мои Рипы\Nel - Дискография (ALAC)\(2014) XO (EP)\06 Такая Жизнь (Feat. Александр Бабенко).wav
    Пиковый уровень 96.6 %Скорость извлечения 2.3 XКачество трека 99.9 %CRC теста 3496E4D4CRC копии 3496E4D4Трек не обнаружен в базе AccurateRipКопирование. OK
    Трек 7
    Имя файла H:\Музон (Loseless)\Мои Рипы\Nel - Дискография (ALAC)\(2014) XO (EP)\07 Через Тернии К Звёздам (Feat. Баста).wav
    Пиковый уровень 96.6 %Скорость извлечения 2.8 XКачество трека 100.0 %CRC теста 89C61CF1CRC копии 89C61CF1Трек не обнаружен в базе AccurateRipКопирование. OK
    Ни одного трека нет в базе AccurateRip
    Ошибок не произошло
    Конец отчёта
    ==== Контрольная сумма отчёта BBE8CB1B9670A2B4B9C384F6FBDE2A67B1066BDDE1532CEAE068A09F6F08A4E5 ====

    Содержание индексной карты (.CUE)

    REM GENRE RapREM DATE 2014REM DISCID 46061E07REM COMMENT "ExactAudioCopy v1.0b3"PERFORMER "Nel"TITLE "XO"FILE "01 Мне Это Нравится (Feat. Иракли).wav" WAVETRACK 01 AUDIOTITLE "Мне Это Нравится (Feat. Иракли)"PERFORMER "Nel"INDEX 01 00:00:00FILE "02 Остаюсь Собой.wav" WAVETRACK 02 AUDIOTITLE "Остаюсь Собой"PERFORMER "Nel"INDEX 01 00:00:00FILE "03 Rock'n'Roll (Feat. ST).wav" WAVETRACK 03 AUDIOTITLE "Rock'n'Roll (Feat. ST)"PERFORMER "Nel"INDEX 01 00:00:00FILE "04 Джин И Тоник.wav" WAVETRACK 04 AUDIOTITLE "Джин И Тоник"PERFORMER "Nel"INDEX 01 00:00:00FILE "05 All Good.wav" WAVETRACK 05 AUDIOTITLE "All Good"PERFORMER "Nel"INDEX 01 00:00:00FILE "06 Такая Жизнь (Feat. Александр Бабенко).wav" WAVETRACK 06 AUDIOTITLE "Такая Жизнь (Feat. Александр Бабенко)"PERFORMER "Nel"INDEX 01 00:00:00FILE "07 Через Тернии К Звёздам (Feat. Баста).wav" WAVETRACK 07 AUDIOTITLE "Через Тернии К Звёздам (Feat. Баста)"PERFORMER "Nel"INDEX 01 00:00:00

    Лог проверки качества

    Начато: вторник, 28. 10. 2014. - 20:26.22
    Найдено файлов: 7
    1 -===- H:\Музон (Loseless)\Мои Рипы\Nel - Дискография (FLAC)\(2014) XO (EP)\01 Мне Это Нравится (Feat. Иракли).flac
    Извлечение успешно выполнено
    Заключение: этот трек - CDDA с вероятностью 100%
    Временный файл удалён.
    2 -===- H:\Музон (Loseless)\Мои Рипы\Nel - Дискография (FLAC)\(2014) XO (EP)\02 Остаюсь Собой.flac
    Извлечение успешно выполнено
    Заключение: этот трек - CDDA с вероятностью 100%
    Временный файл удалён.
    3 -===- H:\Музон (Loseless)\Мои Рипы\Nel - Дискография (FLAC)\(2014) XO (EP)\03 Rock'n'Roll (Feat. ST).flac
    Извлечение успешно выполнено
    Заключение: этот трек - CDDA с вероятностью 100%
    Временный файл удалён.
    4 -===- H:\Музон (Loseless)\Мои Рипы\Nel - Дискография (FLAC)\(2014) XO (EP)\04 Джин И Тоник.flac
    Извлечение успешно выполнено
    Заключение: этот трек - CDDA с вероятностью 100%
    Временный файл удалён.
    5 -===- H:\Музон (Loseless)\Мои Рипы\Nel - Дискография (FLAC)\(2014) XO (EP)\05 All Good.flac
    Извлечение успешно выполнено
    Заключение: этот трек - CDDA с вероятностью 100%
    Временный файл удалён.
    6 -===- H:\Музон (Loseless)\Мои Рипы\Nel - Дискография (FLAC)\(2014) XO (EP)\06 Такая Жизнь (Feat. Александр Бабенко).flac
    Извлечение успешно выполнено
    Заключение: этот трек - CDDA с вероятностью 100%
    Временный файл удалён.
    7 -===- H:\Музон (Loseless)\Мои Рипы\Nel - Дискография (FLAC)\(2014) XO (EP)\07 Через Тернии К Звёздам (Feat. Баста).flac
    Извлечение успешно выполнено
    Заключение: этот трек - CDDA с вероятностью 100%
    Временный файл удалён.
    Завершено: вторник, 28. 10. 2014. - 20:27.34 (Время операции: 0:01.11)

    Скриншот спектра частот

    Доп. информация Бэк-вокал: А. Гомель (2, 5), Александр Бабенко (3), Алида (4)
    Запись и сведение: NEL, Jeton Barabas (Anik Records)
    Мастеринг: Александр Перфильев, студия Sonic Maniacs Mastering
    Дизайн: Покрас Лампас

    Об альбоме (сборнике)

    "XO" - мини-альбом NEL'а, официальный релиз которого состоялся 6 июня 2014 года в iTunes. В Google Play, вероятно, по ошибке, выложили EP за 2 дня до официального выхода и он мгновенно разлетелся по сети.
    29 марта 2014 NEL представил клип и сингл "Остаюсь Собой", 8 июня - "Rock'n'Roll".

    Об исполнителе (группе)

    Игорь Пустельник, более известный как Nel — российский битмейкер и рэп-исполнитель. В прошлом солист группы Marselle c L'One и участник объединения Phlatline. Родной город Якутск. Сейчас проживает в Москве.
    Игоря обычно причисляют к рядам intelligent хип-хопа. Трек «Москва» на протяжении 32-х недель занимал первое место в хит-параде NEXT FM/
    Добившись на родине неплохих результатов, Nel вместе со своим соратником L’One переехал в Москву, где образовал группу «Marselle», получившую известность благодаря треку «Москва» с дебютного альбома. Объездив множество российских городов с гастролями и полюбившись публике далеко за пределами столицы, «Marselle» заняла своё место в рейтинге востребованных андеграундных групп страны.
    В 2008 году вышел первый микстейп группы под названием «Mars FM», а также было запущено реалити-шоу о создании пластинки в интернете. В том же 2008 году выходит полноценный альбом «Mars», в записи которого приняли участие такие артисты, как Баста, ST, Теона Дольникова и Кнара. Его назвали лучшим приложением к новым Air Force 1. А песня «Москва» в итоге стала саундтреком к фильму «Фантом» Тимура Бекмамбетова.
    - В 2009 году Nel становится победителем шоу «Битва за респект» на телеканале Муз-ТВ.
    - В 2009 году Nel принимает участие в продюсировании альбома Guf — «Дома»
    - В 2010 году Nel спродюсировал альбом своего друга и соратника ST — «На100ящий»
    После распада группы Marselle, Nel работает над материалом сольно и является саунд-продюсером многих рэп-исполнителей страны.