File-Portal

Mando Diao скачать торрент

Рейтинг: 4.1/5.0 (1173 проголосовавших)

Категория: Торрент-файлы

Описание

Скачать музыку Mando Diao - Ode To Ochrasy (2006) через торрент

Скачать музыку Mando Diao - Ode To Ochrasy / [2006, Rock`n`Roll, MP3] - торрент

Нажмите на синюю кнопку ниже, чтобы скачать музыку бесплатно через торрент.

Mando diao скачать торрентФормат: MP3, tracks, 320kbps

1.Welcome Home, Luc Robitaille 4.33

2.Killer Kaczynyski 2.32

3.Long Before Rock 'n' Roll 2.50

4.The Wildfire (It Was True) 4.25

5.You Don't Understand Me 4.09

6.Tony Zoulias (Lustful Life) 3.23

10.The New Boy 3.23

11.Morning Paper Dirt 2.31

12.Good Morning, Herr Horst 1.57

13.Song For Aberdeen 3.23

16.Duel Of The Dynamite 3.39

17.With Or Without Love 3.39

18.Moonshine Fever 2.38

Доп. информация: В середине 1990-х Бьорн Диксгорд и первый клавишник Mando Diao Даниэль Хаглунд основывают свою первую группу, которая вначале называется Butler, а в 1999 году переименовывается в Mando Diao. В 2004 году клавишник покинул группу из-за небольших недопониманий и вакантную позицию занимает Матс Бьорке. Название группы, по словам самих музыкантов, не имеет определённого смысла — по словам Диксгорда, ему однажды приснился странный человек, который бежал ему навстречу и кричал «Мандо Диао». Бьорн поделился этим сном со своими коллегами, и они решили переименовать группу.

Информация о торренте:

Скачан: 403 раза

Статус: Проверен Зарегистрирован на трекере: 2011-05-15 14:19

Mando Diao Торрент:

  • скачать
  • скачать
  • Другие статьи

    Garage rock, rock, alternative rock, dance-rock, synthpop, new wave) CD Mando Diao

    (Garage rock, rock, alternative rock, dance-rock, synthpop, new wave) [CD] Mando Diao - Дискография / Discography - 2002-2014, AAC (tracks), 320 kbps

    karpuzikov · 04-Апр-16 05:30 (1 год 4 месяца назад, ред. 29-Янв-17 16:30)

    Издатель (лейбл) : EMI, Majesty, Mute Records, Universal Records, Musica De La Santa|| Сканы : нет|| Вшитые тексты : частично

    Кодек : AAC|| Тип рипа : tracks || Битрейт : 320 kbps|| Программа-конвертер : iTunes 12.3.3.17 Альбомы

    01 Sheepdog (03:35)

    02 Sweet Ride (02:04)

    03 Motown Blood (02:03)

    04 Mr Moon (03:30)

    05 The Band (03:19)

    06 To China With Love (05:02)

    07 Paralyzed (04:09)

    09 Little Boy Jr (02:55)

    11 Bring ’em In (02:13)

    12 Lauren’s Cathedral (04:00)

    01 Cut the Rope (01:49)

    02 God Knows (03:51)

    03 Clean Town (03:42)

    04 Down in the Past (03:57)

    05 You Can’t Steal My Love (05:28)

    06 Added Family (04:17)

    07 Annie’s Angle (03:02)

    08 If I Leave You (02:51)

    09 Ringing Bells (02:34)

    10 This Dream Is Over (03:23)

    11 White Wall (03:50)

    12 All My Senses (04:11)

    13 Kingdom & Glory (04:14)

    14 Next to Be Lowered (03:44)

    01 Welcome Home, Luc Robitaille (4:33)

    02 Killer Kaczynski (2:32)

    03 Long Before Rock ’n’ Roll (2:50)

    04 The Wildfire (If It Was True) (4:25)

    05 You Don’t Understand Me (4:09)

    06 Tony Zoulias (Lustful Life) (3:23)

    07 Amsterdam (3:23)

    09 Josephine (2:41)

    10 The New Boy (3:23)

    11 Morning Paper Dirt (2:31)

    12 Good Morning, Herr Horst (1:57)

    13 Song for Aberdeen (3:23)

    01 San Francisco Bay (3:03)

    02 Duel of the Dynamite (3:39)

    03 With or Without Love (3:39)

    04 Moonshine Fever (2:38)

    01 If I Don't Live Today, Then I Might Be Here Tomorrow (02:01)

    02 Never Seen the Light of Day (04:13)

    04 I Don't Care What the People Say (01:52)

    05 Mexican Hardcore (04:37)

    06 Macadam Cowboy (01:42)

    07 Train on Fire (02:53)

    08 Not a Perfect Day (02:55)

    09 Misty Mountains (02:24)

    10 One Blood (06:42)

    11 Dalarna (07:54)

    01 Blue Lining White Trenchcoat (04:02)

    02 Dance With Somebody (05:18)

    04 High Heels (03:48)

    05 Mean Street (04:32)

    06 Maybe Just Sad (04:05)

    07 A Decent Life (01:45)

    08 Give Me Fire (04:01)

    09 Crystal (06:11)

    10 Come On Come On (04:13)

    11 Go Out Tonight (04:53)

    12 You Got Nothing on Me (05:07)

    13 The Shining / [untitled] (19:22)

    Источник : what.cd (tokvev)

    01 Den sjalvslagne (01:47)

    02 En sangarsaga (06:40)

    03 Infruset (05:23)

    04 I ungdomen (03:19)

    05 Snigelns visa (03:51)

    06 Strovtag i hembygden (04:07)

    08 En ung mor (02:56)

    09 Titania (03:24)

    10 Grabergssang (03:05)

    01 Black Saturday (03:22)

    02 Rooftop (04:57)

    03 Money Doesn’t Make You a Man (05:06)

    04 Sweet Wet Dreams (04:41)

    05 If I Don’t Have You (07:46)

    07 Lonely Driver (04:28)

    10 Make You Mine (06:14)

    01 Long Before Rock'n'Roll (MTV Unplugged) (4:23)

    02 Sheepdog (MTV Unplugged) (5:08)

    03 Losing My Mind (MTV Unplugged) (4:02)

    04 Chet Baker (MTV Unplugged) (3:18)

    05 Gloria (MTV Unplugged) (4:53)

    06 Song for Aberdeen (MTV Unplugged) (4:14)

    07 All My Senses (MTV Unplugged) (4:43)

    08 Dance With Somebody (MTV Unplugged) (4:59)

    09 High Heels (MTV Unplugged) (5:00)

    10 Down In the Past (MTV Unplugged Long Version) (3:59)

    11 How We Walk (MTV Unplugged) (3:48)

    12 No More Tears (MTV Unplugged) (4:19)

    01 You Can't Steal My Love (MTV Unplugged) (3:59)

    02 Ochrasy (MTV Unplugged) (4:32)

    03 The New Boy (MTV Unplugged) (3:46)

    04 Ringing Bells (MTV Unplugged) (2:38)

    05 Mean Street (MTV Unplugged) (4:52)

    06 Your Lover´s Nerve (MTV Unplugged) (2:32)

    07 Mr. Moon (MTV Unplugged) (3:48)

    08 Hail Your Sunny Days (MTV Unplugged) (4:13)

    09 Victoria (MTV Unplugged) (3:38)

    10 Bleecker Street (MTV Unplugged) (3:09)

    11 If I Don't Live Today, Then I Might Be Here Tomorrow (MTV Unplugged) (3:30)

    12 God Knows (MTV Unplugged) (6:17)

    02 This Is the Modern (2:33)

    03 Son of Dad (4:37)

    04 Duel of the Dynamite (3:39)

    05 The Malevolence (4:03)

    07 Hail the Sunny Days (3:55)

    08 Cinderella (2:33)

    09 Last Time Infected (3:16)

    10 Carbon Place (3:55)

    11 Sheepdog (Acoustic) (4:40)

    12 Chet Baker (2:23)

    13 Sweet Jesus (3:52)

    14 A Picture of 'em All (2:32)

    15 And I Don't Know (2:05)

    16 With or Without Love (3:41)

    17 Good Morning, Herr Horst (RAC mix) (2:24)

    18 Spit on Your Love (3:30)

    19 Telephone Song (4:03)

    01 The Quarry (4:35)

    02 How We Walk (4:08)

    03 Searching for Owls (4:03)

    04 San Francisco Bay (3:02)

    05 Your Lover's Nerve (3:27)

    06 Moonshine Fever (2:37)

    07 India Love (3:03)

    08 For the Tears (3:12)

    09 Waves of Fortune (4:25)

    10 Deep Blue Sea (3:10)

    12 Jeanette (4:08)

    13 Long Before Rock 'n' Roll (Live) (3:27)

    Mando Diao - Aelita (Lossless, 2014) - скачать торрент бесплатно

    Mando Diao - Aelita (Lossless, 2014)

    Mando diao скачать торрент Mando diao скачать торрент

    Mando diao скачать торрент

    • ИСПОЛНИТЕЛЬ: Mando Diao
    • АЛЬБОМ / НАЗВАНИЕ: Aelita
    • ГОД / ДАТА ВЫХОДА: 2014
    • СТРАНА: Sweden
    • ТОЧНЫЙ ЖАНР(Ы): Synth-Pop, Pop-Rock
    • ЛЕЙБЛ: Musica De La Santa, Vertigo Berlin, Universal Music Gro
    • ПРОДОЛЖИТЕЛЬНОСТЬ: 00:54:28
    • ФОРМАТ: Wave (image+.cue)
    • КАЧЕСТВО: DTS 5.1 16/44,1

    Описание альбома

    03. Money Doesn't Make You A Man [5:06]

    04. Sweet Wet Dreams [4:41]

    05. If I Don't Have You [7:46]

    07. Lonely Driver [4:28]

    10. Make You Mine [6:20]

    DTSCD BR Mando Diao - Aelita - 2014 (Synth-pop, Pop-Rock) скачать через торрент бесплатно

    [DTSCD][BR] Mando Diao - Aelita - 2014 (Synth-pop, Pop-Rock)

    Добавлено: 28 окт 2016, 21:59

    • Mando diao скачать торрент

    Издатель(лейбл): Musica De La Santa, Vertigo Berlin, Universal Music Group

    01. Black Saturday (Album Version) [3:22]

    03. Money Doesn't Make You A Man [5:06]

    04. Sweet Wet Dreams [4:41]

    05. If I Don't Have You [7:46]

    07. Lonely Driver [4:28]

    10. Make You Mine [6:20]

    Complete name : C:\Mando Diao - Aelita (2010) DTS\Mando Diao - Aelita.wav

    File size : 550 MiB

    Duration : 54mn 28s

    Overall bit rate mode : Constant

    Overall bit rate : 1 411 Kbps

    Format/Info : Digital Theater Systems

    Format settings, Endianness : Big

    Duration : 54mn 28s

    Bit rate mode : Constant

    Bit rate : 1 411.2 Kbps

    Channel(s) : 6 channels

    Channel positions : Front: L C R, Side: L R, LFE

    Mando Diao - 9 альбомов (2002-2014) FLAC, APE, Lossless - Indie Rock, Garage

    Mando Diao - 9 альбомов (2002-2014) [FLAC|APE|Lossless]<Indie Rock, Garage>

    Mando diao скачать торрент

    Жанр: Indie Rock, Garage

    02. Sweet Ride (2:04)

    03. Motown Blood (2:03)

    05. The Band (3:19)

    06. To China With Love (5:02)

    07. Paralyzed (4:09)

    09. Little Boy Jr. (2:55)

    11. Bring 'Em In (2:13)

    12. Lauren's Cathedral (4:00)

    Mando Diao / Bring 'Em In

    Read mode : Secure with NO C2, accurate stream, disable cache

    Read offset correction : 6

    Overread into Lead-In and Lead-Out : No

    Normal Lossless Compression

    Fill up missing offset samples with silence : Yes

    Delete leading and trailing silent blocks : No

    Installed external ASPI interface

    Filename C:\temp\Mando Diao - Bring 'Em In.ape

    Range quality 100.0 %

    Copyright (c) 2008-2010 y-soft. All rights reserved

    Copyright (c) 2004 Oleg Berngardt. All rights reserved.

    Copyright (c) 2004 Alexander Djourik. All rights reserved.

    Size: 281022236 Hash: 8BF54FAB8EE77D0459A81614E34DE2B5 Accuracy: -m0

    Conclusion: CDDA 100%

    02. God Knows (3:51)

    03. Clean Town (3:42)

    04. Down In The Past (3:57)

    05. You Can't Steal My Love (5:28)

    06. Added Family (4:17)

    07. Annie's Angle (3:02)

    08. If I Leave You (2:51)

    09. Ringing Bells (2:34)

    10. This Dream Is Over (3:23)

    11. White Wall (3:50)

    12. All My Senses (4:11)

    13. Kingdom & Glory (4:14)

    14. Next To Be Lowered (3:44)

    Utilize accurate stream : Yes

    Defeat audio cache : Yes

    Make use of C2 pointers : No

    Overread into Lead-In and Lead-Out : No

    Fill up missing offset samples with silence : Yes

    Delete leading and trailing silent blocks : No

    Null samples used in CRC calculations : Yes

    Used interface : Installed external ASPI interface

    Gap handling : Appended to previous track

    Selected bitrate : 128 kBit/s

    Add ID3 tag : No

    Command line compressor : C:\Program Files\Exact Audio Copy\Flac\flac.exe

    Additional command line options : -8 -V -T "ARTIST=%artist%" -T "TITLE=%title%" -T "ALBUM=%albumtitle%" -T "DATE=%year%" -T "TRACKNUMBER=%tracknr%" -T "GENRE=%genre%" -T "COMMENT=ripped by serginho199" %source%

    1 | 0:00.00 | 1:49.03 | 0 | 8177

    2 | 1:49.03 | 3:50.52 | 8178 | 25479

    3 | 5:39.55 | 3:41.41 | 25480 | 42095

    4 | 9:21.21 | 3:56.57 | 42096 | 59852

    5 | 13:18.03 | 5:27.71 | 59853 | 84448

    6 | 18:45.74 | 4:16.43 | 84449 | 103691

    7 | 23:02.42 | 3:02.17 | 103692 | 117358

    8 | 26:04.59 | 2:51.26 | 117359 | 130209

    9 | 28:56.10 | 2:34.20 | 130210 | 141779

    10 | 31:30.30 | 3:22.61 | 141780 | 156990

    11 | 34:53.16 | 3:49.58 | 156991 | 174223

    12 | 38:42.74 | 4:10.74 | 174224 | 193047

    13 | 42:53.73 | 4:14.12 | 193048 | 212109

    14 | 47:08.10 | 3:43.46 | 212110 | 228880

    15 | 53:23.56 | 8:12.11 | 240281 | 277191

    Extraction speed 0.9 X

    Track quality 100.0 %

    Test CRC 0FFB62C0

    Copy CRC 0FFB62C0

    Cannot be verified as accurate (confidence 4) [2FC06D1C], AccurateRip returned [440AB0A8] (AR v2)

    Extraction speed 1.1 X

    Track quality 100.0 %

    Test CRC 400F20C9

    Copy CRC 400F20C9

    Cannot be verified as accurate (confidence 4) [D1EEC5DA], AccurateRip returned [ED29B9FC] (AR v2)

    Extraction speed 1.2 X

    Track quality 100.0 %

    Test CRC 79F201D4

    Copy CRC 79F201D4

    Cannot be verified as accurate (confidence 4) [FACAD6A0], AccurateRip returned [D1BAFE71] (AR v2)

    Extraction speed 1.3 X

    Track quality 100.0 %

    Test CRC C80AEF12

    Copy CRC C80AEF12

    Cannot be verified as accurate (confidence 4) [E195EE17], AccurateRip returned [40733461] (AR v2)

    Extraction speed 1.5 X

    Track quality 100.0 %

    Test CRC 545E7CAD

    Copy CRC 545E7CAD

    Cannot be verified as accurate (confidence 4) [5B36D76F], AccurateRip returned [0E86893A] (AR v2)

    Extraction speed 1.5 X

    Track quality 100.0 %

    Test CRC AD718B47

    Copy CRC AD718B47

    Cannot be verified as accurate (confidence 4) [C1DA8D84], AccurateRip returned [362F95BF] (AR v2)

    Extraction speed 1.3 X

    Track quality 99.9 %

    Test CRC BE5BA11F

    Copy CRC BE5BA11F

    Cannot be verified as accurate (confidence 4) [F2A3CA21], AccurateRip returned [0DAC7639] (AR v2)

    Extraction speed 1.6 X

    Track quality 100.0 %

    Test CRC 969F7E5B

    Copy CRC 969F7E5B

    Cannot be verified as accurate (confidence 3) [471D40B0], AccurateRip returned [EF952724] (AR v2)

    Extraction speed 1.6 X

    Track quality 100.0 %

    Test CRC 7E6F140E

    Copy CRC 7E6F140E

    Cannot be verified as accurate (confidence 4) [84199434], AccurateRip returned [42792C21] (AR v2)

    Extraction speed 1.5 X

    Track quality 99.9 %

    Test CRC 07A07DB0

    Copy CRC 07A07DB0

    Cannot be verified as accurate (confidence 4) [CDF2DDF9], AccurateRip returned [35510D45] (AR v2)

    Extraction speed 1.8 X

    Track quality 100.0 %

    Test CRC A5B08D6D

    Copy CRC A5B08D6D

    Cannot be verified as accurate (confidence 4) [D041A436], AccurateRip returned [96E1E2DA] (AR v2)

    Extraction speed 1.7 X

    Track quality 99.9 %

    Test CRC C848CF83

    Copy CRC C848CF83

    Cannot be verified as accurate (confidence 4) [A7C01343], AccurateRip returned [EC71BF82] (AR v2)

    Extraction speed 2.0 X

    Track quality 100.0 %

    Test CRC 9DE72797

    Copy CRC 9DE72797

    Cannot be verified as accurate (confidence 4) [5B6F4880], AccurateRip returned [F9D0FF4C] (AR v2)

    Extraction speed 2.0 X

    Track quality 100.0 %

    Test CRC 536A9F27

    Copy CRC 536A9F27

    Cannot be verified as accurate (confidence 4) [1E7943CB], AccurateRip returned [E8D935F5] (AR v2)

    You may have a different pressing from the one(s) in the database

    Copyright (c) 2008-2010 y-soft. All rights reserved

    Copyright (c) 2004 Oleg Berngardt. All rights reserved.

    Copyright (c) 2004 Alexander Djourik. All rights reserved.

    Size: 25581564 Hash: 9620510D0C7A164DD49D2434A95E2DDB Accuracy: -m0

    Conclusion: CDDA 100%

    FILE: 13. Mando Diao – Kingdom & Glory.flac

    Size: 31322907 Hash: 6FA80CC08C399751506ACFA36CA039B9 Accuracy: -m0

    Conclusion: CDDA 100%

    FILE: 12. Mando Diao – All My Senses.flac

    Size: 30035605 Hash: 60947A7637942A61021DC9AFFD1813C6 Accuracy: -m0

    Conclusion: CDDA 100%

    FILE: 11. Mando Diao – White Wall.flac

    Size: 28966549 Hash: 419192E69884908F4ADD74E1B6493134 Accuracy: -m0

    Conclusion: CDDA 100%

    FILE: 10. Mando Diao – This Dream Is Over.flac

    Size: 24407796 Hash: 52083756C1EE6FD68BC9526B2F96C1E7 Accuracy: -m0

    Conclusion: CDDA 100%

    FILE: 09. Mando Diao – Ringing Bells.flac

    Size: 17390328 Hash: 2BD9A284173BC72916C0F719B1D7A972 Accuracy: -m0

    Conclusion: CDDA 100%

    FILE: 08. Mando Diao – If I Leave You.flac

    Size: 20618067 Hash: E93AFA6423004FFB48BBBAAD5F9BD353 Accuracy: -m0

    Conclusion: CDDA 100%

    FILE: 07. Mando Diao – Annie's Angle.flac

    Size: 23116632 Hash: 61AD019334199611CFED058BCF2A3B1A Accuracy: -m0

    Conclusion: CDDA 100%

    FILE: 06. Mando Diao – Added Family.flac

    Size: 30835716 Hash: 4B10215695BFF110A18779084A23BCBA Accuracy: -m0

    Conclusion: CDDA 100%

    FILE: 05. Mando Diao – You Can't Steal My Love.flac

    Size: 38244202 Hash: 6A20A25FCF7AF5525B897951833E4AB3 Accuracy: -m0

    Conclusion: CDDA 100%

    FILE: 04. Mando Diao – Down In The Past.flac

    Size: 29341070 Hash: C72959AEDD461C8D5B479F7494D578BB Accuracy: -m0

    Conclusion: CDDA 100%

    FILE: 03. Mando Diao – Clean Town.flac

    Size: 27632377 Hash: 520B81D295E06DF3B7E0F75ADF886327 Accuracy: -m0

    Conclusion: CDDA 100%

    FILE: 02. Mando Diao – God Knows.flac

    Size: 27963911 Hash: 32CAC74E2B4EA7EDD556FBB0CF945E94 Accuracy: -m0

    Conclusion: CDDA 100%

    FILE: 01. Mando Diao – Cut The Rope.flac

    Size: 13743295 Hash: AF186690BE9DC7B50B9A2D9FB3E47226 Accuracy: -m0

    Conclusion: CDDA 100%

    FLAC (tracks + .cue)

    02. Killer Kaczynski (2:32)

    03. Long Before Rock 'N' Roll (2:50)

    04. The Wildfire (If It Was True) (4:25)

    05. You Don't Understand Me (4:09)

    06. Tony Zoulias (Lustful Life) (3:22)

    07. Amsterdam (3:23)

    09. Josephine (2:41)

    10. The New Boy (3:23)

    11. Morning Paper Dirt (2:31)

    12. Good Morning, Herr Horst (1:57)

    13. Song For Aberdeen (3:22)

    Utilize accurate stream : Yes

    Defeat audio cache : Yes

    Make use of C2 pointers : No

    Overread into Lead-In and Lead-Out : No

    Fill up missing offset samples with silence : Yes

    Delete leading and trailing silent blocks : No

    Null samples used in CRC calculations : Yes

    Used interface : Native Win32 interface for Win NT & 2000

    Gap handling : Appended to previous track

    Selected bitrate : 320 kBit/s

    Add ID3 tag : No

    Command line compressor : E:\Program Files\Exact Audio Copy\Flac\flac.exe

    1 | 0:00.00 | 4:33.21 | 0 | 20495

    2 | 4:33.21 | 2:31.48 | 20496 | 31868

    3 | 7:04.69 | 2:49.59 | 31869 | 44602

    4 | 9:54.53 | 4:25.30 | 44603 | 64507

    5 | 14:20.08 | 4:09.10 | 64508 | 83192

    6 | 18:29.18 | 3:22.36 | 83193 | 98378

    7 | 21:51.54 | 3:23.02 | 98379 | 113605

    8 | 25:14.56 | 3:46.18 | 113606 | 130573

    9 | 29:00.74 | 2:40.41 | 130574 | 142614

    10 | 31:41.40 | 3:22.42 | 142615 | 157806

    11 | 35:04.07 | 2:30.68 | 157807 | 169124

    12 | 37:35.00 | 1:57.00 | 169125 | 177899

    13 | 39:32.00 | 3:22.35 | 177900 | 193084

    14 | 42:54.35 | 3:17.21 | 193085 | 207880

    15 | 48:43.56 | 6:16.35 | 219281 | 247515

    Track quality 99.9 %

    Test CRC 79C82C54

    Copy CRC 79C82C54

    Accurately ripped (confidence 33) [9F60BE6F]

    Track quality 100.0 %

    Test CRC C661814E

    Copy CRC C661814E

    Accurately ripped (confidence 32) [033443A4]

    Track quality 100.0 %

    Test CRC 615A2652

    Copy CRC 615A2652

    Accurately ripped (confidence 33) [2B67B258]

    Track quality 100.0 %

    Test CRC 609EB3DE

    Copy CRC 609EB3DE

    Accurately ripped (confidence 33) [3EB19593]

    Track quality 100.0 %

    Test CRC 3623ACE4

    Copy CRC 3623ACE4

    Accurately ripped (confidence 34) [D1BECF40]

    Track quality 100.0 %

    Test CRC 9531E471

    Copy CRC 9531E471

    Accurately ripped (confidence 33) [7C6EFB16]

    Track quality 100.0 %

    Test CRC 57F16052

    Copy CRC 57F16052

    Accurately ripped (confidence 33) [07837B26]

    Track quality 100.0 %

    Test CRC F160792A

    Copy CRC F160792A

    Accurately ripped (confidence 32) [E6B6230B]

    Track quality 100.0 %

    Test CRC BF093D66

    Copy CRC BF093D66

    Accurately ripped (confidence 33) [C5A4ADB1]

    Track quality 99.9 %

    Test CRC 16871425

    Copy CRC 16871425

    Accurately ripped (confidence 32) [18532645]

    Track quality 100.0 %

    Test CRC B03E03D1

    Copy CRC B03E03D1

    Accurately ripped (confidence 32) [0B1C7641]

    Track quality 100.0 %

    Test CRC FCE241BE

    Copy CRC FCE241BE

    Accurately ripped (confidence 33) [34D8FA6A]

    Track quality 100.0 %

    Test CRC 6E3B60AF

    Copy CRC 6E3B60AF

    Accurately ripped (confidence 33) [0E39B815]

    Track quality 100.0 %

    Test CRC 9D28EF28

    Copy CRC 9D28EF28

    Accurately ripped (confidence 33) [B243AE24]

    Copyright (c) 2008-2010 y-soft. All rights reserved

    Copyright (c) 2004 Oleg Berngardt. All rights reserved.

    Copyright (c) 2004 Alexander Djourik. All rights reserved.

    Size: 20001403 Hash: E3B73153D0D251F2F3AF5711240F2E09 Accuracy: -m0

    Conclusion: CDDA 100%

    FILE: 13 Song For Aberdeen.flac

    Size: 27136283 Hash: 843EE62E2EA779EC5F3CB46D3BEA2D90 Accuracy: -m0

    Conclusion: CDDA 100%

    FILE: 12 Good Morning, Herr Horst.flac

    Size: 13836548 Hash: E581799FFA1B799E73318765763F6256 Accuracy: -m0

    Conclusion: CDDA 100%

    FILE: 11 Morning Paper Dirt.flac

    Size: 19926103 Hash: 34D8002A23B24AADE381E341CC6BEE81 Accuracy: -m0

    Conclusion: CDDA 100%

    FILE: 10 The New Boy.flac

    Size: 21755217 Hash: A0BA088495D51D1082535DD4EEE871B6 Accuracy: -m0

    Conclusion: CDDA 100%

    FILE: 09 Josephine.flac

    Size: 16180128 Hash: 74326369ACB292EB02455ADAFE7AF9A8 Accuracy: -m0

    Conclusion: CDDA 100%

    FILE: 08 TV & Me.flac

    Size: 27934327 Hash: 7749A4E12AB05F6C6F4E1C5DB4BB10CD Accuracy: -m0

    Conclusion: CDDA 100%

    FILE: 07 Amsterdam.flac

    Size: 23113825 Hash: B87B4126C1F68F793563F85D45523BEC Accuracy: -m0

    Conclusion: CDDA 99%

    FILE: 06 Tony Zoulias (Lustful Life).flac

    Size: 26108687 Hash: 7146584121EE5014BA4220ECBEB7EFD8 Accuracy: -m0

    Conclusion: CDDA 100%

    FILE: 05 You Don't Understand Me.flac

    Size: 31209645 Hash: A9C5FC80597427E4BC9477842B210F38 Accuracy: -m0

    Conclusion: CDDA 100%

    FILE: 04 The Wildfire (If It Was True).flac

    Size: 32276663 Hash: 9F8BE437BA7A60E43444A8D7A0C99798 Accuracy: -m0

    Conclusion: CDDA 100%

    FILE: 03 Long Before Rock 'N' Roll.flac

    Size: 22060128 Hash: E4659F92F2A1351ADEA2E349FBA10A8A Accuracy: -m0

    Conclusion: CDDA 99%

    FILE: 02 Killer Kaczynski.flac

    Size: 19650569 Hash: 7BAE57B5B1032F05F7CAF28811600BD8 Accuracy: -m0

    Conclusion: CDDA 100%

    FILE: 01 Welcome Home, Luc Robitaille.flac

    Size: 33829362 Hash: A2CF6B9C4550217DFB78D630E7FBC16E Accuracy: -m0

    Conclusion: CDDA 100%

    FLAC (tracks + .cue)

    02. Duel Of The Dynamite (3:38)

    03. With Or Without Love (3:39)

    04. Moonshine Fever (2:38)

    Utilize accurate stream : Yes

    Defeat audio cache : Yes

    Make use of C2 pointers : No

    Overread into Lead-In and Lead-Out : No

    Fill up missing offset samples with silence : Yes

    Delete leading and trailing silent blocks : No

    Null samples used in CRC calculations : Yes

    Used interface : Native Win32 interface for Win NT & 2000

    Gap handling : Appended to previous track

    Selected bitrate : 320 kBit/s

    Add ID3 tag : No

    Command line compressor : E:\Program Files\Exact Audio Copy\Flac\flac.exe

    1 | 0:00.00 | 3:03.29 | 0 | 13753

    2 | 3:03.29 | 3:38.37 | 13754 | 30140

    3 | 6:41.66 | 3:38.59 | 30141 | 46549

    4 | 10:20.50 | 2:37.66 | 46550 | 58390

    5 | 15:30.41 | 8:25.26 | 69791 | 107691

    Track quality 100.0 %

    Test CRC ED3A932F

    Copy CRC ED3A932F

    Accurately ripped (confidence 3) [13E0D681]

    Track quality 99.9 %

    Test CRC 493FE0F7

    Copy CRC 493FE0F7

    Accurately ripped (confidence 3) [38ABA42E]

    Track quality 100.0 %

    Test CRC FD300A2D

    Copy CRC FD300A2D

    Accurately ripped (confidence 3) [79157BA8]

    Track quality 100.0 %

    Test CRC A26CC7F7

    Copy CRC A26CC7F7

    Accurately ripped (confidence 2) [FB48B489]

    Copyright (c) 2008-2010 y-soft. All rights reserved

    Copyright (c) 2004 Oleg Berngardt. All rights reserved.

    Copyright (c) 2004 Alexander Djourik. All rights reserved.

    Size: 19634719 Hash: FE93F7270E9B5BCDBCB9C1F1E82EA543 Accuracy: -m0

    Conclusion: CDDA 100%

    FILE: 03 With Or Without Love.flac

    Size: 27320770 Hash: 232CAFBC3189B9FCF7D08957810FA32D Accuracy: -m0

    Conclusion: CDDA 100%

    FILE: 02 Duel Of The Dynamite.flac

    Size: 24110177 Hash: 263129E19FFBF78BA305130469E59D53 Accuracy: -m0

    Conclusion: CDDA 100%

    FILE: 01 San Franсisco Bay.flac

    Size: 23855469 Hash: 0E7B28A1DF2B91464CBC97E447C6DEF0 Accuracy: -m0

    Conclusion: CDDA 100%

    FLAC (tracks + .cue)

    02. Never Seen The Light Of Day (4:13)

    04. I Don't Care What The People Say (1:52)

    05. Mexican Hardcore (4:37)

    06. Macadam Cowboy (1:42)

    07. Train On Fire (2:53)

    08. Not A Perfect Day (2:55)

    09. Misty Mountains (2:24)

    10. One Blood (6:42)

    Mando Diao / Never Seen The Light Of Day

    Read mode : Secure with NO C2, accurate stream, disable cache

    Read offset correction : 48

    Overread into Lead-In and Lead-Out : No

    44.100 Hz; 16 Bit; Stereo

    Use compression offset : 0

    Fill up missing offset samples with silence : Yes

    Delete leading and trailing silent blocks : No

    Installed external ASPI interface

    Filename H:\Toasten 2\Mando Diao - Never Seen The Light Of Day.wav

    Range quality 100.0 %

    Copyright (c) 2008-2010 y-soft. All rights reserved

    Copyright (c) 2004 Oleg Berngardt. All rights reserved.

    Copyright (c) 2004 Alexander Djourik. All rights reserved.

    Size: 304215064 Hash: 7EC94E21D00A864C8ADC5333AA2EB1E8 Accuracy: -m0

    Conclusion: CDDA 100%

    02. Dance with somebody (5:18)

    04. High Heels (3:48)

    05. Mean Street (4:32)

    06. Maybe just sad (4:05)

    07. A Decent Life (1:45)

    08. Give me Fire (4:01)

    10. Come on Come on (4:13)

    11. Go Out Tonight (4:53)

    12. You Got Nothing On Me (5:07)

    13. The Shining/Give Me Fire (19:22)

    Disable audio cache : OK for the drive with cache less than 2750KB

    Make use of C2 pointers : NO

    Read offset correction : 733

    Max retry count : 100

    Track | Start | Length | Start sector | End sector

    2 | 04:01:71 | 05:17:65 | 18146 | 41985

    3 | 09:19:61 | 04:17:11 | 41986 | 61271

    4 | 13:36:72 | 03:48:32 | 61272 | 78403

    5 | 17:25:29 | 04:31:58 | 78404 | 98786

    6 | 21:57:12 | 04:05:32 | 98787 | 117193

    7 | 26:02:44 | 01:44:70 | 117194 | 125063

    8 | 27:47:39 | 04:01:12 | 125064 | 143150

    9 | 31:48:51 | 06:10:69 | 143151 | 170969

    10 | 37:59:45 | 04:13:27 | 170970 | 189971

    11 | 42:12:72 | 04:52:63 | 189972 | 211934

    12 | 47:05:60 | 05:06:60 | 211935 | 234944

    13 | 52:12:45 | 19:21:43 | 234945 | 322062

    Filename : /Volumes/HD 2/Mando Diao - 2009 - Give Me Fire/01 - Mando Diao -Blue Lining, White Trenchcoat .flac

    CRC32 hash : A47B28D4

    CRC32 hash (skip zero) : AC8D2755

    Skipped (treated as error) : 0

    Edge jitter error (maybe fixed) : 0

    Atom jitter error (maybe fixed) : 0

    Drift error (maybe fixed) : 0

    Dropped bytes error (maybe fixed) : 0

    Duplicated bytes error (maybe fixed) : 0

    Inconsistency in error sectors : 0

    Filename : /Volumes/HD 2/Mando Diao - 2009 - Give Me Fire/02 - Mando Diao -Dance with somebody.flac

    CRC32 hash : 059FC30D

    CRC32 hash (skip zero) : AD291FF7

    Skipped (treated as error) : 0

    Edge jitter error (maybe fixed) : 0

    Atom jitter error (maybe fixed) : 0

    Drift error (maybe fixed) : 0

    Dropped bytes error (maybe fixed) : 0

    Duplicated bytes error (maybe fixed) : 0

    Inconsistency in error sectors : 0

    Filename : /Volumes/HD 2/Mando Diao - 2009 - Give Me Fire/03 - Mando Diao -Gloria.flac

    CRC32 hash : 6FFE1BF8

    CRC32 hash (skip zero) : 1A63BAA2

    Skipped (treated as error) : 0

    Edge jitter error (maybe fixed) : 0

    Atom jitter error (maybe fixed) : 0

    Drift error (maybe fixed) : 0

    Dropped bytes error (maybe fixed) : 0

    Duplicated bytes error (maybe fixed) : 0

    Inconsistency in error sectors : 0

    Filename : /Volumes/HD 2/Mando Diao - 2009 - Give Me Fire/04 - Mando Diao -High Heels.flac

    CRC32 hash : D9023D8F

    CRC32 hash (skip zero) : FB3C0C64

    Skipped (treated as error) : 0

    Edge jitter error (maybe fixed) : 0

    Atom jitter error (maybe fixed) : 0

    Drift error (maybe fixed) : 0

    Dropped bytes error (maybe fixed) : 0

    Duplicated bytes error (maybe fixed) : 0

    Inconsistency in error sectors : 0

    Filename : /Volumes/HD 2/Mando Diao - 2009 - Give Me Fire/05 - Mando Diao -Mean Street .flac

    CRC32 hash : 314EEDB9

    CRC32 hash (skip zero) : 9F1CAE86

    Skipped (treated as error) : 0

    Edge jitter error (maybe fixed) : 0

    Atom jitter error (maybe fixed) : 0

    Drift error (maybe fixed) : 0

    Dropped bytes error (maybe fixed) : 0

    Duplicated bytes error (maybe fixed) : 0

    Inconsistency in error sectors : 0

    Filename : /Volumes/HD 2/Mando Diao - 2009 - Give Me Fire/06 - Mando Diao -Maybe just sad.flac

    CRC32 hash : 8E1C5760

    CRC32 hash (skip zero) : ED687E66

    Skipped (treated as error) : 0

    Edge jitter error (maybe fixed) : 0

    Atom jitter error (maybe fixed) : 0

    Drift error (maybe fixed) : 0

    Dropped bytes error (maybe fixed) : 0

    Duplicated bytes error (maybe fixed) : 0

    Inconsistency in error sectors : 0

    Filename : /Volumes/HD 2/Mando Diao - 2009 - Give Me Fire/07 - Mando Diao -A Decent Life .flac

    CRC32 hash : F42327C6

    CRC32 hash (skip zero) : C41CAA8E

    Skipped (treated as error) : 0

    Edge jitter error (maybe fixed) : 0

    Atom jitter error (maybe fixed) : 0

    Drift error (maybe fixed) : 0

    Dropped bytes error (maybe fixed) : 0

    Duplicated bytes error (maybe fixed) : 0

    Inconsistency in error sectors : 0

    Filename : /Volumes/HD 2/Mando Diao - 2009 - Give Me Fire/08 - Mando Diao -Give me Fire.flac

    CRC32 hash : FCE73B80

    CRC32 hash (skip zero) : 33EC99C7

    Skipped (treated as error) : 0

    Edge jitter error (maybe fixed) : 0

    Atom jitter error (maybe fixed) : 0

    Drift error (maybe fixed) : 0

    Dropped bytes error (maybe fixed) : 0

    Duplicated bytes error (maybe fixed) : 0

    Inconsistency in error sectors : 0

    Filename : /Volumes/HD 2/Mando Diao - 2009 - Give Me Fire/09 - Mando Diao -Crystal .flac

    CRC32 hash : 1A8DA4B8

    CRC32 hash (skip zero) : 5D343F03

    Skipped (treated as error) : 0

    Edge jitter error (maybe fixed) : 0

    Atom jitter error (maybe fixed) : 0

    Drift error (maybe fixed) : 0

    Dropped bytes error (maybe fixed) : 0

    Duplicated bytes error (maybe fixed) : 0

    Inconsistency in error sectors : 0

    Filename : /Volumes/HD 2/Mando Diao - 2009 - Give Me Fire/10 - Mando Diao -Come on Come on.flac

    CRC32 hash : 82AE9D51

    CRC32 hash (skip zero) : 0C208301

    Skipped (treated as error) : 0

    Edge jitter error (maybe fixed) : 0

    Atom jitter error (maybe fixed) : 0

    Drift error (maybe fixed) : 0

    Dropped bytes error (maybe fixed) : 0

    Duplicated bytes error (maybe fixed) : 0

    Inconsistency in error sectors : 0

    Filename : /Volumes/HD 2/Mando Diao - 2009 - Give Me Fire/11 - Mando Diao -Go Out Tonight .flac

    CRC32 hash : 41B6905D

    CRC32 hash (skip zero) : 513A90E3

    Skipped (treated as error) : 0

    Edge jitter error (maybe fixed) : 0

    Atom jitter error (maybe fixed) : 0

    Drift error (maybe fixed) : 0

    Dropped bytes error (maybe fixed) : 0

    Duplicated bytes error (maybe fixed) : 0

    Inconsistency in error sectors : 0

    Filename : /Volumes/HD 2/Mando Diao - 2009 - Give Me Fire/12 - Mando Diao -You Got Nothing On Me .flac

    CRC32 hash : 83929FB9

    CRC32 hash (skip zero) : 9000F4F5

    Skipped (treated as error) : 0

    Edge jitter error (maybe fixed) : 0

    Atom jitter error (maybe fixed) : 0

    Drift error (maybe fixed) : 0

    Dropped bytes error (maybe fixed) : 0

    Duplicated bytes error (maybe fixed) : 0

    Inconsistency in error sectors : 0

    Filename : /Volumes/HD 2/Mando Diao - 2009 - Give Me Fire/13 - Mando Diao -The Shining/Give Me Fire.flac

    CRC32 hash : 710F37B0

    CRC32 hash (skip zero) : 4114C894

    Skipped (treated as error) : 0

    Edge jitter error (maybe fixed) : 0

    Atom jitter error (maybe fixed) : 0

    Drift error (maybe fixed) : 0

    Dropped bytes error (maybe fixed) : 0

    Duplicated bytes error (maybe fixed) : 0

    Inconsistency in error sectors : 0

    Copyright (c) 2008-2010 y-soft. All rights reserved

    Copyright (c) 2004 Oleg Berngardt. All rights reserved.

    Copyright (c) 2004 Alexander Djourik. All rights reserved.

    Size: 68836023 Hash: C354EED63961F1756BB6772716B62201 Accuracy: -m0

    Conclusion: CDDA 99%

    FILE: 12 - You Got Nothing On Me .flac

    Size: 37706131 Hash: 4A1EC28E20FA8437E4046F03DAEE7C58 Accuracy: -m0

    Conclusion: CDDA 100%

    FILE: 11 - Go Out Tonight .flac

    Size: 40532209 Hash: E7CCCDD8AD300B25A02C7108E5C9DE06 Accuracy: -m0

    Conclusion: CDDA 100%

    FILE: 10 - Come on Come on.flac

    Size: 35734673 Hash: EA69A6142B53AC12F01B36038E01C2C8 Accuracy: -m0

    Conclusion: CDDA 100%

    FILE: 09 - Crystal .flac

    Size: 47837062 Hash: E91428AFFA5D37D27214B834C92C8F7E Accuracy: -m0

    Conclusion: CDDA 100%

    FILE: 08 - Give me Fire.flac

    Size: 34501367 Hash: A7A2D404DE8079734BA3056568E70849 Accuracy: -m0

    Conclusion: CDDA 99%

    FILE: 07 - A Decent Life .flac

    Size: 9061669 Hash: 5855518D700696E16713FD3917A3E06E Accuracy: -m0

    Conclusion: CDDA 100%

    FILE: 06 - Maybe just sad.flac

    Size: 32633771 Hash: 6CD0735D14222236D1BF703B3E83842B Accuracy: -m0

    Conclusion: CDDA 100%

    FILE: 05 - Mean Street .flac

    Size: 37224123 Hash: 5D66D8C2383854D7526DE9E7810F101D Accuracy: -m0

    Conclusion: CDDA 100%

    FILE: 04 - High Heels.flac

    Size: 24158830 Hash: CED98E0F82E5EDE2A0259CD024721CCB Accuracy: -m0

    Conclusion: CDDA 100%

    FILE: 03 - Gloria.flac

    Size: 35957815 Hash: C4431F7269F5EC895A57CC93C1CA0E8D Accuracy: -m0

    Conclusion: CDDA 100%

    FILE: 02 - Dance with somebody.flac

    Size: 42597692 Hash: 2624A6B6D522380BE5482192B57317A9 Accuracy: -m0

    Conclusion: CDDA 100%

    FILE: 01 - Blue Lining, White Trenchcoat .flac

    Size: 32947135 Hash: 860F84E82E01D206C8E2EA2805BB03E6 Accuracy: -m0

    Conclusion: CDDA 100%

    FLAC (tracks + .cue)

    02. This Is The Modern (2:33)

    03. Son Of Dad (4:37)

    04. Duel Of The Dynamite (3:39)

    05. The Malevolence (4:03)

    07. Hail The Sunny Days (3:55)

    08. Cinderella (2:33)

    09. Last Time Infected (3:16)

    10. Carbon Place (3:55)

    11. Sheepdog (Acoustic) (4:40)

    12. Chet Baker (2:23)

    13. Sweet Jesus (3:52)

    14. A Picture Of 'Em All (2:32)

    15. And I Don't Know (2:05)

    16. With Or Without Love (3:41)

    17. Good Morning, Herr Horst (RAC Mix) (2:24)

    18. Spit On Your Love (3:30)

    19. Telephone Song (?)

    Использование точного потока : Да

    Отключение кэша аудио : Да

    Использование указателей C2 : Нет

    Способность читать области Lead-in и Lead-out : Нет

    Заполнение пропущенных сэмплов тишиной : Да

    Удаление блоков с тишиной в начале и конце : Нет

    При вычислениях CRC использовались нулевые сэмплы : Да

    Интерфейс : Установленный внешний ASPI-интерфейс

    Формат сэмплов : 44.100 Гц; 16 бит; стерео

    1 | 0:00.00 | 1:42.70 | 0 | 7719

    2 | 1:42.70 | 2:32.47 | 7720 | 19166

    3 | 4:15.42 | 4:36.57 | 19167 | 39923

    4 | 8:52.24 | 3:38.65 | 39924 | 56338

    5 | 12:31.14 | 4:02.46 | 56339 | 74534

    6 | 16:33.60 | 5:01.20 | 74535 | 97129

    7 | 21:35.05 | 3:55.32 | 97130 | 114786

    8 | 25:30.37 | 2:32.60 | 114787 | 126246

    9 | 28:03.22 | 3:15.63 | 126247 | 140934

    10 | 31:19.10 | 3:55.05 | 140935 | 158564

    11 | 35:14.15 | 4:39.47 | 158565 | 179536

    12 | 39:53.62 | 2:22.71 | 179537 | 190257

    13 | 42:16.58 | 3:51.71 | 190258 | 207653

    14 | 46:08.54 | 2:31.38 | 207654 | 219016

    15 | 48:40.17 | 2:04.47 | 219017 | 228363

    16 | 50:44.64 | 3:40.72 | 228364 | 244935

    17 | 54:25.61 | 2:24.28 | 244936 | 255763

    18 | 56:50.14 | 3:30.10 | 255764 | 271523

    19 | 60:20.24 | 4:02.40 | 271524 | 289713

    Качество диапазона 100.0 %

    CRC копии 00B7CF3C

    Copyright (c) 2008-2010 y-soft. All rights reserved

    Copyright (c) 2004 Oleg Berngardt. All rights reserved.

    Copyright (c) 2004 Alexander Djourik. All rights reserved.

    Size: 449999535 Hash: FC723C275A7EECD72B20B837B56894E7 Accuracy: -m0

    Conclusion: CDDA 100%

    FLAC (image + .cue)

    02. How We Walk (4:08)

    03. Searching For Owls (4:03)

    04. San Francisco Bay (3:02)

    05. Your Lover's Nerve (3:27)

    06. Moonshine Fever (2:37)

    07. India Love (3:03)

    08. For The Tears (3:12)

    09. Waves Of Fortune (4:25)

    10. Deep Blue Sea (3:10)

    12. Jeanette (4:08)

    13. Long Before Rock'N'Roll (Live) (3:27)

    14. We're Hit (4:15)

    16. A Hard Day's Night (3:01)

    17. Little Boy Jr (Live) (3:25)

    18. Paralyzed (Live) (4:40)

    19. Sheepdog (Live) (4:01)

    20. Driving Around (?)

    Использование точного потока : Да

    Отключение кэша аудио : Да

    Использование указателей C2 : Нет

    Способность читать области Lead-in и Lead-out : Нет

    Заполнение пропущенных сэмплов тишиной : Да

    Удаление блоков с тишиной в начале и конце : Нет

    При вычислениях CRC использовались нулевые сэмплы : Да

    Интерфейс : Установленный внешний ASPI-интерфейс

    Формат сэмплов : 44.100 Гц; 16 бит; стерео

    1 | 0:00.00 | 4:35.21 | 0 | 20645

    2 | 4:35.21 | 4:08.33 | 20646 | 39278

    3 | 8:43.54 | 4:03.04 | 39279 | 57507

    4 | 12:46.58 | 3:02.16 | 57508 | 71173

    5 | 15:48.74 | 3:27.14 | 71174 | 86712

    6 | 19:16.13 | 2:37.27 | 86713 | 98514

    7 | 21:53.40 | 3:02.40 | 98515 | 112204

    8 | 24:56.05 | 3:11.46 | 112205 | 126575

    9 | 28:07.51 | 4:24.74 | 126576 | 146449

    10 | 32:32.50 | 3:09.46 | 146450 | 160670

    11 | 35:42.21 | 4:08.56 | 160671 | 179326

    12 | 39:51.02 | 4:07.48 | 179327 | 197899

    13 | 43:58.50 | 3:27.15 | 197900 | 213439

    14 | 47:25.65 | 4:14.71 | 213440 | 232560

    15 | 51:40.61 | 4:11.32 | 232561 | 251417

    16 | 55:52.18 | 3:01.06 | 251418 | 264998

    17 | 58:53.24 | 3:25.29 | 264999 | 280402

    18 | 62:18.53 | 4:39.72 | 280403 | 301399

    19 | 66:58.50 | 4:01.34 | 301400 | 319508

    20 | 71:00.09 | 7:35.26 | 319509 | 353659

    Качество диапазона 100.0 %

    CRC копии C778ADAB

    Copyright (c) 2008-2010 y-soft. All rights reserved

    Copyright (c) 2004 Oleg Berngardt. All rights reserved.

    Copyright (c) 2004 Alexander Djourik. All rights reserved.

    Size: 550620882 Hash: D3739305752205EE02D1FEC33E6C8637 Accuracy: -m0

    Conclusion: CDDA 100%

    FLAC (image + .cue)

    02. Sheepdog (5:08)

    03. Losing My Mind (4:02)

    04. Chet Baker (3:18)

    06. Song for Aberdeen (4:14)

    07. All My Senses (4:43)

    08. Dance with Somebody (4:59)

    09. High Heels (5:00)

    10. Down in the Past (3:59)

    11. How We Walk (3:48)

    12. No More Tears (4:19)

    Utilize accurate stream : Yes

    Defeat audio cache : Yes

    Make use of C2 pointers : No

    Overread into Lead-In and Lead-Out : No

    Fill up missing offset samples with silence : Yes

    Delete leading and trailing silent blocks : No

    Null samples used in CRC calculations : Yes

    Used interface : Native Win32 interface for Win NT & 2000

    Gap handling : Appended to previous track

    Selected bitrate : 1024 kBit/s

    Add ID3 tag : No

    Command line compressor : C:\Program Files (x86)\FLAC\flac.exe

    Additional command line options : -8 -V -T "ARTIST=%artist%" -T "TITLE=%title%" -T "ALBUM=%albumtitle%" -T "DATE=%year%" -T "TRACKNUMBER=%tracknr%" -T "GENRE=%genre%" -T "PERFORMER=%albuminterpret%" -T "COMPOSER=%composer%" %haslyrics%--tag-from-file=LYRICS="%lyricsfile%"%haslyrics% -T "ALBUMARTIST=%albumartist%" -T "ALBUM ARTIST=%albumartist%" -T "DISCNUMBER=%cdnumber%" -T "TOTALDISCS=%totalcds%" -T "TOTALTRACKS=%numtracks%" -T "COMMENT=%comment%" %source% -o %dest%

    1 | 0:00.00 | 4:22.69 | 0 | 19718

    2 | 4:22.69 | 5:08.25 | 19719 | 42843

    3 | 9:31.19 | 4:01.67 | 42844 | 60985

    4 | 13:33.11 | 3:18.00 | 60986 | 75835

    5 | 16:51.11 | 4:53.08 | 75836 | 97818

    6 | 21:44.19 | 4:13.57 | 97819 | 116850

    7 | 25:58.01 | 4:42.50 | 116851 | 138050

    8 | 30:40.51 | 4:59.27 | 138051 | 160502

    9 | 35:40.03 | 4:59.56 | 160503 | 182983

    10 | 40:39.59 | 3:59.17 | 182984 | 200925

    11 | 44:39.01 | 3:47.51 | 200926 | 218001

    12 | 48:26.52 | 4:19.02 | 218002 | 237428

    Extraction speed 1.4 X

    Track quality 99.9 %

    Test CRC A43B074A

    Copy CRC A43B074A

    Accurately ripped (confidence 12) [F29E85B7] (AR v2)

    Extraction speed 1.8 X

    Track quality 100.0 %

    Test CRC 0C9D19E4

    Copy CRC 0C9D19E4

    Accurately ripped (confidence 12) [47F190EF] (AR v2)

    Extraction speed 2.0 X

    Track quality 100.0 %

    Test CRC F577A47D

    Copy CRC F577A47D

    Accurately ripped (confidence 12) [F2C1FD3A] (AR v2)

    Extraction speed 2.1 X

    Track quality 100.0 %

    Test CRC F3C5D76A

    Copy CRC F3C5D76A

    Accurately ripped (confidence 12) [8B478725] (AR v2)

    Extraction speed 2.1 X

    Track quality 99.9 %

    Test CRC 79344F96

    Copy CRC 79344F96

    Accurately ripped (confidence 12) [474174A3] (AR v2)

    Extraction speed 2.4 X

    Track quality 100.0 %

    Test CRC 96330578

    Copy CRC 96330578

    Accurately ripped (confidence 12) [E1EC78F7] (AR v2)

    Extraction speed 2.6 X

    Track quality 100.0 %

    Test CRC B1952E10

    Copy CRC B1952E10

    Accurately ripped (confidence 12) [4B40451F] (AR v2)

    Extraction speed 2.7 X

    Track quality 100.0 %

    Test CRC 48FD6FCB

    Copy CRC 48FD6FCB

    Accurately ripped (confidence 12) [9B04936C] (AR v2)

    Extraction speed 2.5 X

    Track quality 99.9 %

    Test CRC 92EA10C1

    Copy CRC 92EA10C1

    Accurately ripped (confidence 12) [3B3DB022] (AR v2)

    Extraction speed 2.8 X

    Track quality 100.0 %

    Test CRC 38B9A8BD

    Copy CRC 38B9A8BD

    Accurately ripped (confidence 12) [B6C8D0E7] (AR v2)

    Extraction speed 2.9 X

    Track quality 100.0 %

    Test CRC 28C56F95

    Copy CRC 28C56F95

    Accurately ripped (confidence 12) [38072528] (AR v2)

    Extraction speed 3.1 X

    Track quality 100.0 %

    Test CRC 95D7CA00

    Copy CRC 95D7CA00

    Accurately ripped (confidence 12) [BD8432A9] (AR v2)

    [908dc62b] (2/2) Accurately ripped

    Copyright (c) 2008-2010 y-soft. All rights reserved

    Copyright (c) 2004 Oleg Berngardt. All rights reserved.

    Copyright (c) 2004 Alexander Djourik. All rights reserved.

    Size: 28923324 Hash: FA7D7219116C67FBFF26D217BA8C4F34 Accuracy: -m0

    Conclusion: MPEG 95%

    FILE: 11 How We Walk.flac

    Size: 23362888 Hash: 8E1DD2B0FA2EAC62535AEB9BB8465F7F Accuracy: -m0

    Conclusion: CDDA 99%

    FILE: 10 Down in the Past.flac

    Size: 29440082 Hash: 1091F32413732AADB4A7831E4B14B135 Accuracy: -m0

    Conclusion: MPEG 95%

    FILE: 09 High Heels.flac

    Size: 31718506 Hash: 966135B512282600502686E82EB3FDAB Accuracy: -m0

    Conclusion: MPEG 95%

    FILE: 08 Dance with Somebody.flac

    Size: 32769034 Hash: 1DBD670B64E58F59A7AAAF98C854D182 Accuracy: -m0

    Conclusion: MPEG 95%

    FILE: 07 All My Senses.flac

    Size: 31588257 Hash: 88190C5496231050D9FAF4F1CDE9CB66 Accuracy: -m0

    Conclusion: MPEG 95%

    FILE: 06 Song for Aberdeen.flac

    Size: 30055554 Hash: A7691513E78197BF4B055BDD5DC50D20 Accuracy: -m0

    Conclusion: CDDA 100%

    FILE: 05 Gloria.flac

    Size: 37987652 Hash: A1FB10FD0F3375A57BAF395C14E7BCB3 Accuracy: -m0

    Conclusion: MPEG 95%

    FILE: 04 Chet Baker.flac

    Size: 15724618 Hash: BC57C86546ACA2527C7C0E4E3A83920D Accuracy: -m0

    Conclusion: CDDA 99%

    FILE: 03 Losing My Mind.flac

    Size: 27869543 Hash: AAB961F3974390FF3B71A55AF8FEC453 Accuracy: -m0

    Conclusion: MPEG 95%

    FILE: 02 Sheepdog.flac

    Size: 34450456 Hash: A9EA683ABFE3B3FBF09BB42B8539CE68 Accuracy: -m0

    Conclusion: MPEG 95%

    FILE: 01 Long Before Rock 'n' Roll.flac

    Size: 29856531 Hash: 8DDB7DD6FA71E8AE93BEE3D32377AEDF Accuracy: -m0

    Conclusion: MPEG 95%

    FLAC (tracks + .cue)

    03. The New Boy (3:46)

    04. Ringing Bells (2:38)

    05. Mean Street (4:52)

    06. Your Lover's Nerve (2:31)

    08. Hail the Sunny Days (4:13)

    09. Victoria (3:38)

    10. Bleecker Street (3:08)

    11. If I Don't Live Today, Then I Might Be Here Tomorrow (3:30)

    12. God Knows (6:17)

    Utilize accurate stream : Yes

    Defeat audio cache : Yes

    Make use of C2 pointers : No

    Overread into Lead-In and Lead-Out : No

    Fill up missing offset samples with silence : Yes

    Delete leading and trailing silent blocks : No

    Null samples used in CRC calculations : Yes

    Used interface : Native Win32 interface for Win NT & 2000

    Gap handling : Appended to previous track

    Selected bitrate : 1024 kBit/s

    Add ID3 tag : No

    Command line compressor : C:\Program Files (x86)\FLAC\flac.exe

    Additional command line options : -8 -V -T "ARTIST=%artist%" -T "TITLE=%title%" -T "ALBUM=%albumtitle%" -T "DATE=%year%" -T "TRACKNUMBER=%tracknr%" -T "GENRE=%genre%" -T "PERFORMER=%albuminterpret%" -T "COMPOSER=%composer%" %haslyrics%--tag-from-file=LYRICS="%lyricsfile%"%haslyrics% -T "ALBUMARTIST=%albumartist%" -T "ALBUM ARTIST=%albumartist%" -T "DISCNUMBER=%cdnumber%" -T "TOTALDISCS=%totalcds%" -T "TOTALTRACKS=%numtracks%" -T "COMMENT=%comment%" %source% -o %dest%

    1 | 0:00.00 | 3:58.61 | 0 | 17910

    2 | 3:58.61 | 4:32.18 | 17911 | 38328

    3 | 8:31.04 | 3:45.63 | 38329 | 55266

    4 | 12:16.67 | 2:37.52 | 55267 | 67093

    5 | 14:54.44 | 4:52.21 | 67094 | 89014

    6 | 19:46.65 | 2:31.37 | 89015 | 100376

    7 | 22:18.27 | 3:48.07 | 100377 | 117483

    8 | 26:06.34 | 4:12.70 | 117484 | 136453

    9 | 30:19.29 | 3:38.26 | 136454 | 152829

    10 | 33:57.55 | 3:08.34 | 152830 | 166963

    11 | 37:06.14 | 3:30.06 | 166964 | 182719

    12 | 40:36.20 | 6:16.62 | 182720 | 210981

    Extraction speed 1.6 X

    Track quality 100.0 %

    Test CRC 8E3AFEFE

    Copy CRC 8E3AFEFE

    Accurately ripped (confidence 12) [FE8B1A0B] (AR v2)

    Extraction speed 1.6 X

    Track quality 99.9 %

    Test CRC FF5553AD

    Copy CRC FF5553AD

    Accurately ripped (confidence 12) [1F395C0C] (AR v2)

    Extraction speed 1.9 X

    Track quality 100.0 %

    Test CRC 2917BA8A

    Copy CRC 2917BA8A

    Accurately ripped (confidence 12) [23DFAC1E] (AR v2)

    Extraction speed 1.6 X

    Track quality 99.9 %

    Test CRC F066D816

    Copy CRC F066D816

    Accurately ripped (confidence 11) [91782012] (AR v2)

    Extraction speed 2.3 X

    Track quality 100.0 %

    Test CRC 7326B96A

    Copy CRC 7326B96A

    Accurately ripped (confidence 11) [BA6338E7] (AR v2)

    Extraction speed 2.1 X

    Track quality 100.0 %

    Test CRC 878F8F3E

    Copy CRC 878F8F3E

    Accurately ripped (confidence 11) [0624DA09] (AR v2)

    Extraction speed 2.1 X

    Track quality 99.9 %

    Test CRC 3DECA60D

    Copy CRC 3DECA60D

    Accurately ripped (confidence 11) [206F8F79] (AR v2)

    Extraction speed 2.2 X

    Track quality 99.9 %

    Test CRC 47FC1970

    Copy CRC 47FC1970

    Accurately ripped (confidence 11) [417F1D85] (AR v2)

    Extraction speed 2.6 X

    Track quality 100.0 %

    Test CRC D88C513D

    Copy CRC D88C513D

    Accurately ripped (confidence 11) [648BD53B] (AR v2)

    Extraction speed 2.5 X

    Track quality 100.0 %

    Test CRC 764BD6DE

    Copy CRC 764BD6DE

    Accurately ripped (confidence 11) [8702A8E0] (AR v2)

    Extraction speed 2.7 X

    Track quality 100.0 %

    Test CRC B7C14F4B

    Copy CRC B7C14F4B

    Accurately ripped (confidence 11) [F4C93B1E] (AR v2)

    Extraction speed 2.8 X

    Track quality 99.9 %

    Test CRC 424CDA01

    Copy CRC 424CDA01

    Accurately ripped (confidence 11) [96BA14EB] (AR v2)

    [e87824b9] (2/2) Accurately ripped

    Copyright (c) 2008-2010 y-soft. All rights reserved

    Copyright (c) 2004 Oleg Berngardt. All rights reserved.

    Copyright (c) 2004 Alexander Djourik. All rights reserved.

    Size: 44871363 Hash: 9BC3455C437D9AAC8B9EDABC05D8066D Accuracy: -m0

    Conclusion: CDDA 100%

    FILE: 11 If I Don't Live Today, Then I Might Be Here Tomorrow.flac

    Size: 18942221 Hash: 1B6BB9C71D8067C3EC61E212DC958B3E Accuracy: -m0

    Conclusion: MPEG 95%

    FILE: 10 Bleecker Street.flac

    Size: 16107803 Hash: C905809C0A26CECBDDD1C39E70D027F9 Accuracy: -m0

    Conclusion: MPEG 95%

    FILE: 09 Victoria.flac

    Size: 27643919 Hash: 4063E7A17EBCD35862BD56726085E9C0 Accuracy: -m0

    Conclusion: CDDA 100%

    FILE: 08 Hail the Sunny Days.flac

    Size: 30529607 Hash: FFAFEED081570461F7273E7DB4ACFCAD Accuracy: -m0

    Conclusion: CDDA 100%

    FILE: 07 Mr. Moon.flac

    Size: 27541364 Hash: 4E6F47EA2122AA6836711E798F9C6E59 Accuracy: -m0

    Conclusion: MPEG 95%

    FILE: 06 Your Lover's Nerve.flac

    Size: 19236298 Hash: 738C60E37527A8A45085A0EEC420B4E0 Accuracy: -m0

    Conclusion: MPEG 95%

    FILE: 05 Mean Street.flac

    Size: 31600249 Hash: D2303E8F73961DCA02E71446E6CBA04E Accuracy: -m0

    Conclusion: CDDA 100%

    FILE: 04 Ringing Bells.flac

    Size: 15385736 Hash: C5D5BE45BD4EB1726DCD7C28FB293B84 Accuracy: -m0

    Conclusion: MPEG 95%

    FILE: 03 The New Boy.flac

    Size: 23549587 Hash: 22F7E169AA92F7128791AD7D38792EE9 Accuracy: -m0

    Conclusion: MPEG 95%

    FILE: 02 Ochrasy.flac

    Size: 25662969 Hash: BC7C8F9031E13650914C012D8682B7AA Accuracy: -m0

    Conclusion: MPEG 95%

    FILE: 01 You Can't Steal My Love.flac

    Size: 18928686 Hash: 61B5100DDBA2737AF763A30D1C7E4FE5 Accuracy: -m0

    Conclusion: CDDA 100%

    FLAC (tracks + .cue)

    02. En sångarsaga (6:40)

    03. Infruset (5:23)

    04. I ungdomen (3:19)

    05. Snigelns visa (3:51)

    06. Strövtåg i hembygden (4:07)

    08. En ung mor (2:56)

    Utilize accurate stream : Yes

    Defeat audio cache : Yes

    Make use of C2 pointers : No

    Overread into Lead-In and Lead-Out : No

    Fill up missing offset samples with silence : Yes

    Delete leading and trailing silent blocks : No

    Null samples used in CRC calculations : Yes

    Used interface : Native Win32 interface for Win NT & 2000

    Gap handling : Appended to previous track

    Selected bitrate : 128 kBit/s

    Add ID3 tag : No

    Command line compressor : C:\Program\Exact Audio Copy\Flac\flac.exe

    1 | 0:00.00 | 1:47.01 | 0 | 8025

    2 | 1:47.01 | 6:39.43 | 8026 | 37993

    3 | 8:26.44 | 5:23.32 | 37994 | 62250

    4 | 13:50.01 | 3:18.73 | 62251 | 77173

    5 | 17:08.74 | 3:50.47 | 77174 | 94470

    6 | 20:59.46 | 4:07.24 | 94471 | 113019

    7 | 25:06.70 | 2:52.68 | 113020 | 125987

    8 | 27:59.63 | 2:56.26 | 125988 | 139213

    9 | 30:56.14 | 3:24.03 | 139214 | 154516

    10 | 34:20.17 | 3:05.19 | 154517 | 168410

    Extraction speed 3.6 X

    Track quality 100.0 %

    Test CRC 12369A72

    Copy CRC 12369A72

    Track not present in AccurateRip database

    Extraction speed 5.2 X

    Track quality 100.0 %

    Test CRC F2BDDDE7

    Copy CRC F2BDDDE7

    Track not present in AccurateRip database

    Extraction speed 4.9 X

    Track quality 99.9 %

    Test CRC 72057D33

    Copy CRC 72057D33

    Track not present in AccurateRip database

    Extraction speed 5.8 X

    Track quality 100.0 %

    Test CRC 32E112AD

    Copy CRC 32E112AD

    Track not present in AccurateRip database

    Extraction speed 6.1 X

    Track quality 100.0 %

    Test CRC 201E088B

    Copy CRC 201E088B

    Track not present in AccurateRip database

    Extraction speed 6.5 X

    Track quality 100.0 %

    Test CRC 2F1097F6

    Copy CRC 2F1097F6

    Track not present in AccurateRip database

    Extraction speed 6.3 X

    Track quality 100.0 %

    Test CRC 7B1757B5

    Copy CRC 7B1757B5

    Track not present in AccurateRip database

    Extraction speed 6.7 X

    Track quality 100.0 %

    Test CRC 25D46147

    Copy CRC 25D46147

    Track not present in AccurateRip database

    Extraction speed 7.2 X

    Track quality 100.0 %

    Test CRC 29078BEE

    Copy CRC 29078BEE

    Track not present in AccurateRip database

    Extraction speed 7.2 X

    Track quality 100.0 %

    Test CRC 3873423D

    Copy CRC 3873423D

    Track not present in AccurateRip database

    Copyright (c) 2008-2010 y-soft. All rights reserved

    Copyright (c) 2004 Oleg Berngardt. All rights reserved.

    Copyright (c) 2004 Alexander Djourik. All rights reserved.

    Size: 19021544 Hash: 27B3223D14B3DCCF1F9EC83D69EE0C7E Accuracy: -m0

    Conclusion: CDDA 100%

    FILE: 09 - Mando Diao - Titania.flac

    Size: 19994822 Hash: 7540D327118ECCB1FC424E8335AAD3B3 Accuracy: -m0

    Conclusion: CDDA 100%

    FILE: 08 - Mando Diao - En ung mor.flac

    Size: 16247681 Hash: C63506EFE4B63E1E620CCB92DC268957 Accuracy: -m0

    Conclusion: CDDA 100%

    FILE: 07 - Mando Diao - Men.flac

    Size: 16944089 Hash: FE61ABE3C7C51D1A5E578F292AA7AD6C Accuracy: -m0

    Conclusion: CDDA 100%

    FILE: 06 - Mando Diao - Strövtåg i hembygden.flac

    Size: 27848439 Hash: AAE56C61A1C7990144E3BE71026D3D44 Accuracy: -m0

    Conclusion: CDDA 100%

    FILE: 05 - Mando Diao - Snigelns visa.flac

    Size: 24068152 Hash: 7C9D016B127B97AEA2FCD8609D65F7D3 Accuracy: -m0

    Conclusion: CDDA 100%

    FILE: 04 - Mando Diao - I ungdomen.flac

    Size: 21178852 Hash: 8100D29C30899F996B28082887088F64 Accuracy: -m0

    Conclusion: CDDA 100%

    FILE: 03 - Mando Diao - Infruset.flac

    Size: 35827573 Hash: AC82AEEBA078FD9392388A84A81A2815 Accuracy: -m0

    Conclusion: CDDA 100%

    FILE: 02 - Mando Diao - En sångarsaga.flac

    Size: 39884581 Hash: C6DD3FCBA1C5F6296AA8031DBFE8F3A6 Accuracy: -m0

    Conclusion: CDDA 100%

    FILE: 01 - Mando Diao - Den självslagne.flac

    Size: 10165782 Hash: CAA49175F63C14D910A67C00E8DA6431 Accuracy: -m0

    Conclusion: CDDA 100%

    FLAC (tracks + .cue)

    03. Money Doesn't Make You A Man (5:06)

    04. Sweet Wet Dreams (4:41)

    05. If I Don't Have You (7:46)

    07. Lonely Driver (4:28)

    10. Make You Mine (6:14)

    11. Romeo (Berlin Live) (5:08)

    12. Sweet Wet Dreams (Berlin Live) (4:20)

    13. Black Saturday (Berlin Live) (3:51)

    Copyright (c) 2008-2010 y-soft. All rights reserved

    Copyright (c) 2004 Oleg Berngardt. All rights reserved.

    Copyright (c) 2004 Alexander Djourik. All rights reserved.

    Size: 30158863 Hash: 1B60AD5E01D8E41CA4BF7D1B0CDDE311 Accuracy: -m0

    Conclusion: CDDA 99%

    FILE: 11 Romeo (Berlin Live).flac

    Size: 37776736 Hash: 81094482F24DC80BCA5183351A450BB2 Accuracy: -m0

    Conclusion: CDDA 100%

    FILE: 10 Make You Mine.flac

    Size: 43549427 Hash: 3912449ED27CADDDDB19B53A9ABBAD84 Accuracy: -m0

    Conclusion: CDDA 99%

    FILE: 09 Romeo.flac

    Size: 31172674 Hash: E8060942B5AA92118137D06E94ABCE47 Accuracy: -m0

    Conclusion: CDDA 100%

    FILE: 08 Child.flac

    Size: 44429202 Hash: 08982471F41FB1ACE2F6A3C6E1B6765D Accuracy: -m0

    Conclusion: CDDA 100%

    FILE: 07 Lonely Driver.flac

    Size: 29705572 Hash: 0E83DD55167120EE3339BB4847A26C6A Accuracy: -m0

    Conclusion: CDDA 100%

    FILE: 06 Baby.flac

    Size: 42845814 Hash: FFC5B8D3F34EFF1D0A42663929036625 Accuracy: -m0

    Conclusion: CDDA 99%

    FILE: 05 If I Don't Have You.flac

    Size: 53966888 Hash: 0ADB8FAB9BF6A4FD0DC84B39377CB9B0 Accuracy: -m0

    Conclusion: CDDA 99%

    FILE: 04 Sweet Wet Dreams.flac

    Size: 32377412 Hash: 3BCDC0ACCE6B1E9EC881AE3C97DE0786 Accuracy: -m0

    Conclusion: CDDA 100%

    FILE: 03 Money Doesn't Make You A Man.flac

    Size: 35719471 Hash: F57DD1084D813CEE0F30C7D03B4F04D0 Accuracy: -m0

    Conclusion: CDDA 100%

    FILE: 02 Rooftop.flac

    Size: 32766712 Hash: 15EE5AA3708BFBD664CEE805B3FA6C69 Accuracy: -m0

    Conclusion: CDDA 99%

    FILE: 01 Black Saturday.flac

    Size: 24808618 Hash: 763B1D1C349C771299CAAF27E4983340 Accuracy: -m0

    Conclusion: CDDA 87%

    FILE: 13 Black Saturday (Berlin Live).flac

    Size: 29686881 Hash: F9D28204D7A518EFAE342104B52B2B3C Accuracy: -m0

    Официальная история группы начинается в 1999 году. До тех пор члены Mando Diao, как и многие подростки до них, играли в гараже и мечтали о славе. К этому времени уже сложился их первоначальный состав, собственный репертуар и даже собственная манера игры. За написание песен отвечали оба фронтмена Bjorn Dixgard и Gustaf Noren. Остальные роли были тоже четко распределены: Carl-Johan Fogelklou (бас-гитара), Daniel Haglund (клавишные), Samuel Giers (ударные). А вот разделения имиджа в группе никогда не наблюдалось. Напротив, они всегда представляли себя как единую команду бунтарей против рутины индустриального города.

    Их заметили еще до выхода первого альбома, заметили и оценили. Внимание привлекал не только несомненный талант исполнителей и яркость композиций, но и их непоколебимая вера в себя и искренность, с которой они преподносили публике свое творчество. Последовали годы бесконечных выступлений, по словам самих членов группы, они не отказывались ни от одного предложения, давали концерты «на каждой бензоколонке». Усилия не пропали даром, и в 2002 году они подписывают контракт и выпускают свой первый диск «Bring ‘Em In».

    Вскоре после релиза группу покидает клавишник Daniel Haglund и его чуть позже заменяет Mats Bjorke сперва в качестве помощника, а потом и как постоянный член группы. В этом составе они выпускают еще четыре студийных альбома, последний из которых, «Give Me Fire», получает платиновый статус в Германии. Еще одной отличительной чертой Mando Diao является их постоянная тяга к экспериментам. Выработав формулу успеха для одного альбома, они не держатся за нее, а вместо этого изобретают что-то совершенно новое, но не менее замечательное. В своей игре они сохраняют все лучшие традиции The Beatles, Rolling Stones, The Kinks, но при этом делают свою музыку понятной и близкой для поколения 21 века.

    В 2010 году они записали концертный «Above and Beyond» с концерта MTV Unplugged, который немедленно вошел в десятку многих европейских хит-парадов.

    В Москву группа приезжала в 2008 и апреле 2011, зажигая российскую столицу настоящим рок-н-роллом.

    Gustaf Noren (leadsinger, guitar)

    Bjorn Dixgard (leadsinger, guitar)

    Carl-Johan Fogelklou (bass)

    Mats Bjorke (piano, keyboards)

    Daniel Haglund (keyboards) 1999 - 2003

    Samuel Giers (drums) until 2011

    2002 - Bring 'Em In

    2005 - Hurricane Bar

    2006 - Ode To Ochrasy (2 CD)

    2007 - Never Seen The Light Of Day

    2009 - Give me Fire

    2010 - MTV Unplugged: Above and Beyond (Special Edition)

    2009 - The Malevolence of Mando Diao: 2002-2007 (Deluxe Edition 2 CD)