File-Portal

Скачать Игра Престолов 3 Сезон Через Торрент В Хорошем Качестве 720

Рейтинг: 4.2/5.0 (1102 проголосовавших)

Категория: Торрент-файлы

Описание

Скачать Игра престолов (3 сезон)

Игра престолов (3 сезон) / Game of Thrones (2013) скачать торрент

Скачать игра престолов 3 сезон через торрент в хорошем качестве 720

Оригинальное название: Game of Thrones

Год выхода: 2013

Жанр: фэнтези, драма, приключения

Режиссер: Алик Сахаров, Алекс Грейвз, Мишель Макларен

В ролях: Лина Хиди, Питер Динклэйдж, Эмилия Кларк, Кит Харингтон, Стивен Диллэйн, Натали Дормер, Николай Костер-Вальдау, Гвендолин Кристи, Джек Глисон, Лиам Каннингем, Мишель Фэйрли, Ричард Мэдден, Мэйси Уильямс, Софи Тернер, Айзек Хемпстед-Райт, Чарльз Дэнс, Джон Брэдли, Рори МакКанн.

Выпущено: США, Великобритания

Перевод: Профессиональный (многоголосый, закадровый) - LostFilm

Размер: 550 MB / серия

Однако южные лорды и короли как и прежде глухи к сообщениям о скорой зиме, о пробуждении Иных и о вторжении одичалых. Король Станнис Баратеон скрылся после поражения на Черноводной в своем замке, король Бейлон Грейджой разоряет побережье, король Робб теряет союзников, а король Джоффри, напротив, имея в союзниках два самых влиятельных дома Королевств, надеется вскоре разбить всех своих врагов. Третий сезон Игры престолов поставлен по первой половине третьего тома Песни Льда и Пламени (Буря мечей).

Игра Престолов 3 Сезон Через Торрент В Хорошем Качестве 720:

  • скачать
  • скачать
  • Другие статьи

    Игра престолов (3 сезон) скачать через торрент бесплатно

    Игра престолов (3 сезон) торрент

    Скачать игра престолов 3 сезон через торрент в хорошем качестве 720

    Скачать игра престолов 3 сезон через торрент в хорошем качестве 720

    Оригинальное наименование: Game of Thrones

    Год выпуска: 2013

    Режиссер: Тимоти Ван Паттен,Брайан Кирк,Даниэль Минахан,Алан Тейлор

    В ролях: Шон Бин,Питер Динклэйдж,Марк Эдди,Николай Костер-Валдау,Мишель Фэйрли,Лена Хиди,Эмилия Кларк,Иэн Глен,Эйдан Гиллен

    Перевод: Профессиональный (многоголосый, закадровый) |LostFilm|

    Продолжительность: 00:55:00 / серия

    На арене появляется новый опасный игрок – это дом Тиррелов, которые искусно манипулируют людьми и начинают менять ситуацию в свою пользу. Тем временем становится очевидным, что дом Старков проигрывает в этой войне, если они только не найдут новых союзников или не сплотятся, чтобы отомстить.

    Ситуация на севере становится все более неоднозначной. Белые ходоки нанесли поражение защитникам Стены, поэтому Ночной Дозор вынужден возвратиться на Стену. В то же время Джон Сноу присоединяется к одичалым, но у него есть свои скрытые намерения.

    Не стоит забывать и о Дейенерис Таргариен, которая продолжает свое путешествие с целью вернуть себе престол Семи Королевств. Она хочет нанять армию Безупречных – искусных воинов-евнухов, которые проходят самую жесткую подготовку.

    Третий сезон обещает быть интересным и непредсказуемым, так что не пропустите ничего из того, что вам приготовили сценаристы.

    Сериал Игра престолов 3 Сезон (2013) Скачать через торрент

    Сериал Игра престолов 3 Сезон (2013) Скачать через торрент

    Оригинальное название: Game of Thrones

    Слоган: «Победа или смерть»

    Режиссер: Алан Тейлор, Дэвид Наттер, Алекс Грейвз

    Премьера (РФ): 8 сентября 2011

    Сюжет сериала Игра престолов 3 Сезон (2013)

    Собирающийся оспорить права на наследование короны Робб Старк, при поддержке домов Севера, меж тем одерживает одну победу за другой и провозглашается Королем Севера. По пути в Речные земли, где он поклялся жениться на одной из дочерей своего союзника — Уолдера Фрея, - Робб знакомится с целительницей Талисой и мгновенно влюбляется в нее. Последующая женитьба на Талисе приводит в ужас его мать и окружение, предупреждающих Робба о том, что Фрей не простит нарушенной клятвы.

    В это же время другой сын казненного лорда Старка — Джон Сноу, — попадает в плен к одичалым племенам, обитающим за Стеной.Чтобы спасти свою жизнь, Джон вынужден сделать вид, что он отрекается от Ночного Дозора, в котором проходил службу, и готов примкнуть к армии одичалых, готовящихся атаковать стену.Проведя некоторое время среди людей за Стеной, Джон проникается к ним пониманием и просит отказаться от штурма, убеждая своих новых товарищей, что этот поступок обречет племена одичалых на гибель.

    Скачать сериал Игра Престолов, 3 сезон 1-10 серии из 10

    Скачать сериал Игра Престолов, 3 сезон 1-10 серии из 10 / Game Of Thrones [LostFilm |Uateam] (Алан Тейлор, Дэвид Наттер, Алекс Грейвз) [2013, фэнтези, драма, мелодрама, приключения, BDRip 720p, P+UKR-P] - торрент

    Скачать торрент сериал можно, нажав на синюю кнопку ниже. Сериал доступен на нашем торрент-трекере бесплатно, без регистрации и смс.

    Скачать игра престолов 3 сезон через торрент в хорошем качестве 720Перевод #1: Профессиональный (многоголосый закадровый) [LostFilm]

    Перевод #2: Профессиональный (многоголосый закадровый) Украинский [Uateam]

    Субтитры: русские, английские

    Формат: BDRip, MKV, H.264, AC3

    Страна: США, Великобритания

    Режиссер: Алан Тейлор, Дэвид Наттер, Алекс Грейвз

    Продолжительность: 10 x

    4751 Kbps avg, 0.215 bit/pixel

    Аудио #1 Rus: 48 kHz, AC3, 2 ch

    384 Kbps [LostFilm]

    Аудио #2 Ukr: 48 kHz, AC3, 2 ch

    384 Kbps [Uateam]

    Аудио #3 Eng: 48 kHz, AC3, 6 ch

    Уникальный идентификатор : 210609239299385972774451980863668702942 (0x9E71DD32960147318F2214C6A1174EDE)

    Полное имя : F:\TREKER\ТЕМР\game_of_thrones_s03_[my-tfile.org]\game_of_thrones_s03_e01_[my-tfile.org].mkv

    Версия формата : Version 2

    Размер файла : 2,25 Гбайт

    Продолжительность : 54 м. 31 с.

    Общий поток : 5910 Кбит/сек

    Название фильма : game_of_thrones_s03_e01_[my-tfile.org]

    Дата кодирования : UTC 2016-12-05 10:04:49

    Программа кодирования : mkvmerge v4.0.0 ('The Stars were mine') сборка от Jun 6 2010 16:18:42

    Библиотека кодирования : libebml v1.0.0 + libmatroska v1.0.0

    Формат/Информация : Advanced Video Codec

    Профиль формата : High@L4.1

    Параметр CABAC формата : Да

    Параметр ReFrames формата : 6 кадров

    Идентификатор кодека : V_MPEG4/ISO/AVC

    Продолжительность : 54 м. 31 с.

    Битрейт : 4751 Кбит/сек

    Ширина : 1280 пикселей

    Высота : 720 пикселей

    Соотношение сторон : 16:9

    Режим частоты кадров : Постоянный

    Частота кадров : 23,976 (24000/1001) кадра/сек

    Цветовое пространство : YUV

    Субдискретизация насыщенности : 4:2:0

    Битовая глубина : 8 бит

    Тип развёртки : Прогрессивная

    Размер потока : 1,77 Гбайт (79%)

    Библиотека кодирования : x264 core 146 r2538 121396c

    Настройки программы : cabac=1 / ref=6 / deblock=1:-1:-1 / analyse=0x3:0x133 / me=umh / subme=10 / psy=1 / psy_rd=1.00:0.15 / mixed_ref=1 / me_range=24 / chroma_me=1 / trellis=2 / 8x8dct=1 / cqm=0 / deadzone=21,11 / fast_pskip=0 / chroma_qp_offset=-3 / threads=12 / lookahead_threads=1 / sliced_threads=0 / nr=0 / decimate=1 / interlaced=0 / bluray_compat=0 / constrained_intra=0 / bframes=3 / b_pyramid=2 / b_adapt=2 / b_bias=0 / direct=3 / weightb=1 / open_gop=0 / weightp=2 / keyint=250 / keyint_min=23 / scenecut=40 / intra_refresh=0 / rc_lookahead=50 / rc=2pass / mbtree=1 / bitrate=4751 / ratetol=1.0 / qcomp=0.69 / qpmin=0 / qpmax=69 / qpstep=4 / cplxblur=20.0 / qblur=0.5 / ip_ratio=1.40 / aq=1:1.00

    Формат/Информация : Audio Coding 3

    Расширение режима : CM (complete main)

    Параметр Endianness формата : Big

    Идентификатор кодека : A_AC3

    Продолжительность : 54 м. 31 с.

    Вид битрейта : Постоянный

    Битрейт : 384 Кбит/сек

    Каналы : 6 каналов

    Расположение каналов : Front: L C R, Side: L R, LFE

    Частота : 48,0 КГц

    Частота кадров : 31,250 кадров/сек (1536 spf)

    Битовая глубина : 16 бит

    Метод сжатия : С потерями

    Размер потока : 150 Мбайт (6%)

    Заголовок : Профессиональный (многоголосый закадровый)(LostFilm.TV)

    Формат/Информация : Audio Coding 3

    Расширение режима : CM (complete main)

    Параметр Endianness формата : Big

    Идентификатор кодека : A_AC3

    Продолжительность : 54 м. 31 с.

    Вид битрейта : Постоянный

    Битрейт : 384 Кбит/сек

    Каналы : 6 каналов

    Расположение каналов : Front: L C R, Side: L R, LFE

    Частота : 48,0 КГц

    Частота кадров : 31,250 кадров/сек (1536 spf)

    Битовая глубина : 16 бит

    Метод сжатия : С потерями

    Размер потока : 150 Мбайт (6%)

    Заголовок : Профессиональный (многоголосый закадровый)(Uateam.TV)

    Формат/Информация : Audio Coding 3

    Расширение режима : CM (complete main)

    Параметр Endianness формата : Big

    Идентификатор кодека : A_AC3

    Продолжительность : 54 м. 31 с.

    Вид битрейта : Постоянный

    Битрейт : 384 Кбит/сек

    Каналы : 6 каналов

    Расположение каналов : Front: L C R, Side: L R, LFE

    Частота : 48,0 КГц

    Частота кадров : 31,250 кадров/сек (1536 spf)

    Битовая глубина : 16 бит

    Метод сжатия : С потерями

    Размер потока : 150 Мбайт (6%)

    Идентификатор кодека : S_TEXT/ASS

    Идентификатор кодека/Информация : Advanced Sub Station Alpha

    Метод сжатия : Без потерь

    Идентификатор кодека : S_TEXT/UTF8

    Идентификатор кодека/Информация : UTF-8 Plain Text

    Идентификатор кодека : S_TEXT/UTF8

    Идентификатор кодека/Информация : UTF-8 Plain Text

    Идентификатор кодека : S_TEXT/UTF8

    Идентификатор кодека/Информация : UTF-8 Plain Text

    Игра престолов 7 сезон 7 серия смотреть онлайн полностью бесплатно на русском Lostfilm hd 720 - 28 августа 2017 года

    Игра престолов 7 сезон 7 серия (28.08.2017) Lostfilm смотреть онлайн

    Скачать игра престолов 3 сезон через торрент в хорошем качестве 720

    Скачать игра престолов 3 сезон через торрент в хорошем качестве 720 Скачать игра престолов 3 сезон через торрент в хорошем качестве 720

    Скачать игра престолов 3 сезон через торрент в хорошем качестве 720

    Год выпуска: 2017

    Качество: HDRip hd 720

    Продолжительность: 55 мин.

    Премьера (РФ): 28 августа 2017 года

    В ролях: Питер Динклэйдж, Лина Хиди, Эмилия Кларк, Кит Харингтон, Николай Костер-Вальдау, Мэйси Уильямс, Софи Тернер, Айзек Хемпстед-Райт, Шон Бин, Чарльз Дэнс

    Смотреть онлайн Игра престолов 7 сезон 7 серия (28.08.2017) Lostfilm в хорошем HD 720 / HD 1080 качестве на Киного
    • Смотреть онлайн
    • Плеер №2
    • Трейлер

    Понравился Игра престолов 7 сезон 7 серия (28.08.2017) Lostfilm! Не забудь поделится им с друзьями в соц. сетях.

    • Поделиться
    • Нравится
    • Twitter
    • Класс!
    • Нравится
    • Google+

    Не забудьте в плеере выбрать доступное качество для просмотра онлайн (360 / 480 / HD 720 / HD 1080) На нашем сайте "KinoGo net 2017" можно смотреть онлайн полностью на телефоне, Айпад, Айфон и Андроид (iPad, iPhone Android) и других устройствах, так же, как на бобфильм, кинопрофи, баскино, гидонлайн, кинокрад, бигсинима и других сайтах. Так же при желании Вы можете скачать через торрент к себе на компьютер и наслаждаться просмотром.